Журнал Ліги Чемпіонів 2018/2019 (10.02.2019) 720р

Нові коментарі

Нова тема   Відповісти
Останній раз роздавалося lokk234 (2019-06-28)
Автор Повідомлення
lokk234 
Новенький


З нами з: 05.03.14
Востаннє: 30.05.19
Повідомлень: 24

2019-02-11 18:37  
Журнал Ліги Чемпіонів 2018/2019 (10.02.2019) 720р

Журнал Ліги Чемпіонів 2018/2019 (10.02.2019) 720р


Жанр: спорт, футбол
Телеканал: Футбол 1/2
Опис:
В цьому випуску:
-Карєра від дебюту до повернення Хунтелара в Аякс;
-Історія тренера Тоттенхема Марісіо Почетіно;
-Шляхи молодих талантів Преснеля Кімпембе, Джастіна Клюйверта та Джейдона Санчо
-а також про впроваження системи VAR футбол.


Тривалість: 00:24:17
Якість:
Відео:
кодек:
розмір кадру: 1280 х 720
бітрейт: 1841 кб/с

Аудіо # 1:
мова: українська
переклад: оригінал
коментатор: Кирило Круторогов
кодек: 2.0
бітрейт: 128 кб/с
Скріншоти




Info:
General
Complete name : D:\Donowload\UCL2.mp4
Format : MPEG-4
Format profile : Base Media / Version 2
Codec ID : mp42
File size : 343 MiB
Duration : 24mn 17s
Overall bit rate : 1 972 Kbps
Encoded date : UTC 2019-02-11 11:49:04
Tagged date : UTC 2019-02-11 11:49:04
gsst : 0
gstd : 1457725

Video
ID : 1
Format : AVC
Format/Info : Advanced Video Codec
Format profile : [email protected]
Format settings, CABAC : Yes
Format settings, ReFrames : 3 frames
Codec ID : avc1
Codec ID/Info : Advanced Video Coding
Duration : 24mn 17s
Bit rate mode : Variable
Bit rate : 1 841 Kbps
Width : 1 280 pixels
Height : 720 pixels
Display aspect ratio : 16:9
Frame rate mode : Constant
Frame rate : 23.976 fps
Color space : YUV
Chroma subsampling : 4:2:0
Bit depth : 8 bits
Scan type : Progressive
Bits/(Pixel*Frame) : 0.083
Stream size : 320 MiB (93%)
Title : ISO Media file produced by Google Inc. Created on: 02/11/2019.
Encoded date : UTC 2019-02-11 11:49:04
Tagged date : UTC 2019-02-11 11:49:04
Color primaries : BT.709-5, BT.1361, IEC 61966-2-4, SMPTE RP177
Transfer characteristics : BT.709-5, BT.1361
Matrix coefficients : BT.709-5, BT.1361, IEC 61966-2-4 709, SMPTE RP177

Audio
ID : 2
Format :
Format/Info : Advanced Audio Codec
Format profile : LC
Codec ID : 40
Duration : 24mn 17s
Bit rate mode : Variable
Bit rate : 128 Kbps
Channel(s) : 2 channels
Channel positions : Front: L R
Sampling rate : 44.1 KHz
Compression mode : Lossy
Stream size : 22.2 MiB (6%)
Title : ISO Media file produced by Google Inc. Created on: 02/11/2019.
Language : Russian
Encoded date : UTC 2019-02-11 11:49:04
Tagged date : UTC 2019-02-11 11:49:04

Джерело:
Особиста оцінка: 8 - мені сподобалося


 Трекер:    Зареєстрований   

Завантажити / скачати торрент



відео для новачків



 Зареєстрований:   2019-02-11 18:37
 Розмір:   343 MB 
 Оцінка:   9.7/10 (Голосів: 3)
   
Ваш часовий пояс: GMT + 2 Години

Нова тема   Відповісти