Розправа / Reprisal (2018) 1080p Ukr/Eng

Нові коментарі

Нова тема   Відповісти
Автор Повідомлення
staf777 
Попереджень: 1
Попереджень: 1 


З нами з: 16.11.16
Востаннє: 18.02.19
Повідомлень: 2147

2019-02-11 12:55  
Розправа / Reprisal (2018) 1080p Ukr/Eng

Розправа / Reprisal (2018) 1080p Ukr/Eng


Жанр: екшн, кримінальний, трилер
Країна: Велика Британія, США



Кінокомпанія: Emmett/Furla/Oasis Films (EFO Films), Ingenious Media, Kind Hearts Entertainment
Режисер: Браян Міллер / Brian A. Miller
Актори: Брюс Вілліс / Bruce Willis, Френк Ґрілло / Frank Grillo, Джонатан Шаєх / Johnathon Schaech, Олівія Калпо / Olivia Culpo, Наталі Юра / Natali Yura, Анкл Мурда / Uncle Murda, Наталія Софі Батлер / Natalia Sophie Butler, Тейлор Джон Олсон / Tyler Jon Olson, Вес Стівенс / Wass Stevens та інші.

Сюжет:
Менеджера банку Джейкоба переслідують спогади про жорстоке пограбування, яке забрало життя його колеги. Він об'єднується з колишнім копом Джеймсом, який живе по сусідству, щоб вичислити й зловити вбивцю.


Тривалість: 01:34:48
Якість:
Відео:
кодек:
розмір кадру: 1920x1040
бітрейт: 10.5 Мб/с

Аудіо # 1:
мова: українська
переклад: багатоголосий закадровий
кодек: 2.0
бітрейт: 192 кб/с

Аудіо # 2:
мова: англійська
переклад: оригінал
кодек: 5.1
бітрейт: 1509 кб/с

Джерело озвучення:
Info
General
Unique ID : 201713851956436304544596136096594839190 (0x97C0ACBD997BB8E69FB5BBA079D2C696)
Complete name : J:\HD українською » Фільми в HD\Бойовик\Reprisal (2018) 1080p [UKR_ENG] [Hurtom].
Format :
Format version : Version 4
File size : 8.07 GiB
Duration : 1 h 34 min
Overall bit rate : 12.2 Mb/s
Movie name : Reprisal (2018) 1080p [UKR_ENG] [Hurtom]
Encoded date : UTC 2019-02-11 12:14:25
Writing application : v30.1.0 ('Forever And More') 64-bit
Writing library : libebml v1.3.6 + v1.4.9
Cover : Yes
Attachments : cover.jpg

Video
ID : 1
Format : AVC
Format/Info : Advanced Video Codec
Format profile : [email protected]
Format settings : CABAC / 4 Ref Frames
Format settings, CABAC : Yes
Format settings, ReFrames : 4 frames
Codec ID : V_MPEG4/ISO/AVC
Duration : 1 h 34 min
Bit rate : 10.5 Mb/s
Width : 1 920 pixels
Height : 1 040 pixels
Display aspect ratio : 1.85:1
Frame rate mode : Constant
Frame rate : 23.976 (24000/1001) FPS
Color space : YUV
Chroma subsampling : 4:2:0
Bit depth : 8 bits
Scan type : Progressive
Bits/(Pixel*Frame) : 0.219
Stream size : 6.94 GiB (86%)
Title : seleZen
Writing library : core 148 r2705kMod 3f5ed56
Encoding settings : cabac=1 / ref=4 / deblock=1:-2:-2 / analyse=0x3:0x133 / me=umh / subme=11 / psy=1 / fade_compensate=0.00 / psy_rd=1.05:0.05 / mixed_ref=1 / me_range=48 / chroma_me=1 / trellis=2 / 8x8dct=1 / cqm=0 / deadzone=21,11 / fast_pskip=0 / chroma_qp_offset=-3 / threads=12 / lookahead_threads=2 / sliced_threads=0 / nr=0 / decimate=0 / interlaced=0 / bluray_compat=0 / constrained_intra=0 / fgo=0 / bframes=8 / b_pyramid=2 / b_adapt=2 / b_bias=0 / direct=3 / weightb=1 / open_gop=0 / weightp=2 / keyint=240 / keyint_min=23 / scenecut=40 / intra_refresh=0 / rc_lookahead=50 / rc=2pass / mbtree=0 / bitrate=10500 / ratetol=1.0 / qcomp=0.60 / qpmin=0 / qpmax=51 / qpstep=4 / cplxblur=20.0 / qblur=0.5 / vbv_maxrate=50000 / vbv_bufsize=62500 / nal_hrd=none / filler=0 / ip_ratio=1.40 / pb_ratio=1.30 / aq=3:0.80
Language : English
Default : Yes
Forced : No

Audio #1
ID : 2
Format : AC-3
Format/Info : Audio Coding 3
Commercial name : Dolby Digital
Codec ID : A_AC3
Duration : 1 h 34 min
Bit rate mode : Constant
Bit rate : 192 kb/s
Channel(s) : 2 channels
Channel layout : L R
Sampling rate : 48.0 kHz
Frame rate : 31.250 FPS (1536 SPF)
Bit depth : 16 bits
Compression mode : Lossy
Stream size : 130 MiB (2%)
Title : MVO [2+2], 2.0 [stereo] 192 Kbps
Language : Ukrainian
Service kind : Complete Main
Default : Yes
Forced : Yes

Audio #2
ID : 3
Format :
Format/Info : Digital Theater Systems
Codec ID : A_DTS
Duration : 1 h 34 min
Bit rate mode : Constant
Bit rate : 1 509 kb/s
Channel(s) : 6 channels
Channel layout : C L R Ls Rs LFE
Sampling rate : 48.0 kHz
Frame rate : 93.750 FPS (512 SPF)
Bit depth : 24 bits
Compression mode : Lossy
Stream size : 1 023 MiB (12%)
Title : Original
Language : English
Default : No
Forced : No

Menu
00:00:00.000 : en:Глава 01
00:08:24.337 : en:Глава 02
00:15:38.688 : en:Глава 03
00:22:52.121 : en:Глава 04
00:34:24.145 : en:Глава 05
00:40:55.495 : en:Глава 06
00:48:51.554 : en:Глава 07
00:56:23.630 : en:Глава 08
01:06:18.349 : en:Глава 09
01:15:42.663 : en:Глава 10
01:24:21.723 : en:Глава 11
01:31:52.590 : en:Глава 12



Над доріжкою працювали: Sando7, Bohdan237
Джерело: &
Особиста оцінка: 10 - без зайвих вагань рекомендую всім!


 Трекер:    Зареєстрований   

Завантажити / скачати фільм українською



відео для новачків



 Зареєстрований:   2019-02-11 14:30
 Розмір:   8.07 GB 
 Оцінка фільму:   6.6/10 (Голосів: 7)
   
Інші релізи
   Розправа / Reprisal (2018) AVC Ukr/Eng Sando7  75 / 2   1.88 GB   2019-02-11 09:21 
bot 
робот


З нами з: 30.09.07
Востаннє: 26.05.05
Повідомлень: 20705

2019-02-11 12:55  
Тему перенесено з Фільми в HD до форуму Анонси релізів


staf777

bot 
робот


З нами з: 30.09.07
Востаннє: 26.05.05
Повідомлень: 20705

2019-02-11 14:30  
Тему перенесено з Анонси релізів до форуму Фільми в HD


staf777

waldi-hurtom 
VIP


З нами з: 07.10.12
Востаннє: 17.02.19
Повідомлень: 915

2019-02-13 21:59  
Оцінка IMDB абсолютно справедлива - 4 з 10. Тупа халтура трохи приправлена діабетичними шмарклями. В порівнянні з цим лайном усі стрічки Стівена Сігала заслуговують мінімум на 3 Оскари кожен.
Ваш часовий пояс: GMT + 2 Години

Нова тема   Відповісти