Проект «Флорида» / The Florida Project (2017) mini 1080p H.265 Ukr/Eng | Sub Eng

Нові коментарі

Нова тема   Відповісти
Автор Повідомлення
Anonymous 







2019-02-11 09:02  
Проект «Флорида» / The Florida Project (2017) mini 1080p H.265 Ukr/Eng | Sub Eng

Проект «Флорида» / The Florida Project (2017) mini 1080p H.265 Ukr/Eng | Sub Eng


Жанр: драма
Країна: США
Кінокомпанія: Cre Film, Freestyle Picture Company, June Pictures
Режисер: Шон Бейкер
Актори: Віллем Дефо, Бріа Вінайт, Бруклін Прінс, Валерія Котто, Крістофер Рівера, Калеб Лендрі Джонс, Мейкон Блер, Карен Карагулян, Сенді Кейн, Джим Р. Коулмен

Сюжет:
“Проект Флорида” — комедійна драма, тріумфатор “Двотижневика режисерів” Канського кінофестивалю — яскрава, пронизлива ода дитинству та неймовірно смішна історія для всіх, хто колись був дитиною.
Режисер Шон Бейкер довго не потрапляв на великий екран, але після “Санденса” домігся визнання та маючи у розпорядженні скромний бюджет, знімає історію про пригоди маленьких жителів Америки.

Тривалість: 01:51:36
Якість: mini
Відео:
кодек: H.265 (HEVC)
розмір кадру: 1920 x 804
бітрейт: 4 153 кб/с
бітова глибина: 10 біт
Увага! Перед завантаженням переконайтесь, що ваш пристрій відтворення (та/або ПЗ) підтримує H.265 (HEVC)

Аудіо # 1:
мова: українська
переклад: багатоголосий закадровий
кодек: AC-3 5.1
бітрейт: 384 кб/с

Аудіо # 2:
мова: англійська
переклад: оригінал
кодек: AC-3 5.1
бітрейт: 448 кб/с

Субтитри # 1:
мова: англійська (Forced),
тип: програмні (м'які)
формат: *.srt

Субтитри # 2:
мова: англійська (Full),
тип: програмні (м'які)
формат: *.srt

Субтитри # 3:
мова: англійська (SDH),
тип: програмні (м'які)
формат: *.srt


Info
Код:
General
Unique ID                                : 321223523764969118393674197171008052513 (0xF1A9667BC4AD32AE8971015365C61D21)
Complete name                            : C:\Users\User\Desktop\bbb\Tol\The Florida Project (2017) 1080p H.265 [UKR_ENG].
Format                                   :
Format version                           : Version 4 / Version 2
File size                                : 3.89 GiB
Duration                                 : 1 h 51 min
Overall bit rate                         : 4 988 kb/s
Movie name                               : The Florida Project (2017)
Encoded date                             : UTC 2019-02-10 19:32:12
Writing application                      : v20.0.0 ('I Am The Sun') 64-bit
Writing library                          : libebml v1.3.5 + v1.4.8
Cover                                    : Yes
Attachments                              : cover.jpg

Video
ID                                       : 1
Format                                   : HEVC
Format/Info                              : High Efficiency Video Coding
Format profile                           : Main [email protected]@Main
Codec ID                                 : V_MPEGH/ISO/HEVC
Duration                                 : 1 h 51 min
Bit rate                                 : 4 153 kb/s
Width                                    : 1 920 pixels
Height                                   : 804 pixels
Display aspect ratio                     : 2.40:1
Frame rate mode                          : Constant
Frame rate                               : 23.976 (24000/1001) FPS
Color space                              : YUV
Chroma subsampling                       : 4:2:0
Bit depth                                : 10 bits
Bits/(Pixel*Frame)                       : 0.112
Stream size                              : 3.24 GiB (83%)
Title                                    : The Florida Project (2017)
Writing library                          : x265 2.6+37-1949157705ce:[Windows][GCC 7.3.0][64 bit] 10bit
Encoding settings                        : cpuid=1173503 / frame-threads=3 / numa-pools=8 / wpp / no-pmode / no-pme / no-psnr / no-ssim / log-level=2 / input-csp=1 / input-res=1920x804 / interlace=0 / total-frames=160545 / level-idc=0 / high-tier=1 / uhd-bd=0 / ref=4 / no-allow-non-conformance / no-repeat-headers / annexb / no-aud / no-hrd / info / hash=0 / no-temporal-layers / open-gop / min-keyint=23 / keyint=250 / gop-lookahead=0 / bframes=4 / b-adapt=2 / b-pyramid / bframe-bias=0 / rc-lookahead=25 / lookahead-slices=4 / scenecut=40 / radl=0 / no-intra-refresh / ctu=64 / min-cu-size=8 / rect / no-amp / max-tu-size=32 / tu-inter-depth=1 / tu-intra-depth=1 / limit-tu=0 / rdoq-level=2 / dynamic-rd=0.00 / no-ssim-rd / signhide / no-tskip / nr-intra=0 / nr-inter=0 / no-constrained-intra / strong-intra-smoothing / max-merge=3 / limit-refs=3 / limit-modes / me=3 / subme=3 / merange=57 / temporal-mvp / weightp / no-weightb / no-analyze-src-pics / deblock=0:0 / sao / no-sao-non-deblock / rd=4 / no-early-skip / rskip / no-fast-intra / no-tskip-fast / no-cu-lossless / no-b-intra / no-splitrd-skip / rdpenalty=0 / psy-rd=2.00 / psy-rdoq=1.00 / no-rd-refine / no-lossless / cbqpoffs=0 / crqpoffs=0 / rc=abr / bitrate=4153 / qcomp=0.60 / qpstep=4 / stats-write=0 / stats-read=2 / cplxblur=20.0 / qblur=0.5 / ipratio=1.40 / pbratio=1.30 / aq-mode=3 / aq-strength=1.00 / cutree / zone-count=0 / no-strict-cbr / qg-size=32 / no-rc-grain / qpmax=69 / qpmin=0 / no-const-vbv / sar=0 / overscan=0 / videoformat=5 / range=0 / colorprim=2 / transfer=2 / colormatrix=2 / chromaloc=0 / display-window=0 / max-cll=0,0 / min-luma=0 / max-luma=1023 / log2-max-poc-lsb=8 / vui-timing-info / vui-hrd-info / slices=1 / no-opt-qp-pps / no-opt-ref-list-length-pps / multi-pass-opt-rps / scenecut-bias=0.05 / no-opt-cu-delta-qp / aq-motion / no-hdr / no-hdr-opt / no-dhdr10-opt / analysis-reuse-level=5 / scale-factor=0 / refine-intra=0 / refine-inter=0 / refine-mv=0 / no-limit-sao / ctu-info=0 / no-lowpass-dct / refine-mv-type=0 / copy-pic=1
Default                                  : Yes
Forced                                   : No

Audio #1
ID                                       : 2
Format                                   : AC-3
Format/Info                              : Audio Coding 3
Codec ID                                 : A_AC3
Duration                                 : 1 h 51 min
Bit rate mode                            : Constant
Bit rate                                 : 384 kb/s
Channel(s)                               : 6 channels
Channel positions                        : Front: L C R, Side: L R, LFE
Sampling rate                            : 48.0 kHz
Frame rate                               : 31.250 FPS (1536 SPF)
Bit depth                                : 16 bits
Compression mode                         : Lossy
Stream size                              : 307 MiB (8%)
Title                                    : БЗ
Language                                 : Ukrainian
Service kind                             : Complete Main
Default                                  : Yes
Forced                                   : No

Audio #2
ID                                       : 3
Format                                   : AC-3
Format/Info                              : Audio Coding 3
Codec ID                                 : A_AC3
Duration                                 : 1 h 51 min
Bit rate mode                            : Constant
Bit rate                                 : 448 kb/s
Channel(s)                               : 6 channels
Channel positions                        : Front: L C R, Side: L R, LFE
Sampling rate                            : 48.0 kHz
Frame rate                               : 31.250 FPS (1536 SPF)
Bit depth                                : 16 bits
Compression mode                         : Lossy
Stream size                              : 358 MiB (9%)
Title                                    : Original
Language                                 : English
Service kind                             : Complete Main
Default                                  : No
Forced                                   : No

Text #1
ID                                       : 4
Format                                   : UTF-8
Codec ID                                 : S_TEXT/UTF8
Codec ID/Info                            : UTF-8 Plain Text
Duration                                 : 2 min 18 s
Bit rate                                 : 31 b/s
Count of elements                        : 16
Stream size                              : 551 Bytes (0%)
Title                                    : Forced
Language                                 : English
Default                                  : Yes
Forced                                   : No

Text #2
ID                                       : 5
Format                                   : UTF-8
Codec ID                                 : S_TEXT/UTF8
Codec ID/Info                            : UTF-8 Plain Text
Duration                                 : 1 h 46 min
Bit rate                                 : 65 b/s
Count of elements                        : 1511
Stream size                              : 50.9 KiB (0%)
Title                                    : Full
Language                                 : English
Default                                  : No
Forced                                   : No

Text #3
ID                                       : 6
Format                                   : UTF-8
Codec ID                                 : S_TEXT/UTF8
Codec ID/Info                            : UTF-8 Plain Text
Duration                                 : 1 h 50 min
Bit rate                                 : 74 b/s
Count of elements                        : 1755
Stream size                              : 60.4 KiB (0%)
Title                                    : SDH
Language                                 : English
Default                                  : No
Forced                                   : No

Menu
00:00:00.000                             : en:Chapter 01
00:07:16.686                             : en:Chapter 02
00:13:02.656                             : en:Chapter 03
00:21:22.531                             : en:Chapter 04
00:25:16.389                             : en:Chapter 05
00:32:04.005                             : en:Chapter 06
00:38:48.868                             : en:Chapter 07
00:44:28.207                             : en:Chapter 08
00:51:27.542                             : en:Chapter 09
00:56:41.648                             : en:Chapter 10
01:04:28.698                             : en:Chapter 11
01:11:19.108                             : en:Chapter 12
01:19:07.451                             : en:Chapter 13
01:28:33.224                             : en:Chapter 14
01:36:10.931                             : en:Chapter 15
01:44:52.411                             : en:Chapter 16
Світлини





Джерело: &
Особиста оцінка: 0 - не дивився


 Трекер:    Зареєстрований   

Завантажити / скачати фільм українською



відео для новачків



 Зареєстрований:   2019-02-11 09:02
 Розмір:   3.89 GB 
 Оцінка фільму:   7.4/10 (Голосів: 5)
   
ros21 
Свій


З нами з: 14.01.11
Востаннє: 17.11.19
Повідомлень: 63

2019-02-11 11:27  
Опис з попереднього фільму!
hetzendorf 
Забанено
Забанено


З нами з: 23.07.15
Востаннє: 02.11.19
Повідомлень: 2572

2019-04-13 23:16  
Ваш часовий пояс: GMT + 2 Години

Нова тема   Відповісти