Битва статей / Battle of the Sexes (2017) 1080p H.265 Ukr/Eng | Sub Ukr/Eng

Нові коментарі

Нова тема   Відповісти
Автор Повідомлення
-Star-Lord- 
VIP


З нами з: 09.08.18
Востаннє: 22.04.19
Повідомлень: 736

2019-02-11 09:58  
Битва статей / Battle of the Sexes (2017) 1080p H.265 Ukr/Eng | Sub Ukr/Eng

Битва статей / Battle of the Sexes (2017) 1080p H.265 Ukr/Eng | Sub Ukr/Eng


Жанр: драма, комедія, біографічний, спорт, ЛГБТ
Країна: Велика Британія, США
Кінокомпанія: Cloud Eight Films, Decibel Films, Fox Searchlight Pictures, TSG Entertainment
Режисер: Джонатан Дейтон, Валері Феріс
Актори: Емма Стоун, Стів Карелл, Андреа Райзборо, Наталі Моралес, Сара Сілверман, Білл Пуллман, Алан Каммінг, Елізабет Шу, Ерік Крістіан Олсен, Фред Армізен

Сюжет:
Історія суперництва між 55-річним чемпіоном Вімблдону Боббі Ріггсом і 29-річною тенісисткою Біллі Джин Кінг. Легендарний матч, що пройшов у 1973 році, зібрав біля екранів більше 50 мільйонів американців і довів, що професійні спортсменки здатні на рівних змагатися з колегами-чоловіками.

Тривалість: 02:01:39
Якість: (Власний Rip)
Відео:
кодек: H.265 (HEVC)
розмір кадру: 1920 x 804
бітрейт: 6 528 кб/с
бітова глибина: 10 біт
Увага! Перед завантаженням переконайтесь, що ваш пристрій відтворення (та/або ПЗ) підтримує H.265 (HEVC)

Аудіо # 1:
мова: українська
переклад: професійний дубльований
кодек: AC-3 5.1
бітрейт: 384 кб/с

Аудіо # 2:
мова: англійська
переклад: оригінал
кодек: AC-3 5.1
бітрейт: 640 кб/с

Субтитри # 1:
мова: українська (Full),
тип: програмні (м'які)
формат: *.srt

Субтитри # 2:
мова: англійська (Full),
тип: програмні (м'які)
формат: *.srt


Info
Код:
General
Unique ID                                : 36285490467182356873373998059210349780 (0x1B4C54CDB386F2C3B50921DC726F1CD4)
Complete name                            : C:\Users\User\Desktop\bbb\Tol\Battle of the Sexes (2017) 1080p H.265 [UKR_ENG].
Format                                   :
Format version                           : Version 4 / Version 2
File size                                : 6.42 GiB
Duration                                 : 2 h 1 min
Overall bit rate                         : 7 555 kb/s
Movie name                               : Battle of the Sexes (2017) - Encoded by -Star-Lord-
Encoded date                             : UTC 2019-02-10 19:40:02
Writing application                      : v20.0.0 ('I Am The Sun') 64-bit
Writing library                          : libebml v1.3.5 + v1.4.8
Cover                                    : Yes
Attachments                              : cover

Video
ID                                       : 1
Format                                   : HEVC
Format/Info                              : High Efficiency Video Coding
Format profile                           : Main [email protected]@High
Codec ID                                 : V_MPEGH/ISO/HEVC
Duration                                 : 2 h 1 min
Bit rate                                 : 6 528 kb/s
Width                                    : 1 920 pixels
Height                                   : 804 pixels
Display aspect ratio                     : 2.40:1
Frame rate mode                          : Constant
Frame rate                               : 23.976 (24000/1001) FPS
Color space                              : YUV
Chroma subsampling                       : 4:2:0
Bit depth                                : 10 bits
Bits/(Pixel*Frame)                       : 0.176
Stream size                              : 5.55 GiB (86%)
Title                                    : Battle of the Sexes (2017) - Encoded by -Star-Lord-
Writing library                          : x265 2.9+9-f74003e88622:[Windows][GCC 8.2.0][64 bit] 10bit
Encoding settings                        : cpuid=1111039 / frame-threads=5 / numa-pools=4 / wpp / no-pmode / no-pme / no-psnr / no-ssim / log-level=3 / input-csp=1 / input-res=1920x804 / interlace=0 / total-frames=0 / level-idc=51 / high-tier=1 / uhd-bd=0 / ref=5 / allow-non-conformance / no-repeat-headers / annexb / no-aud / no-hrd / info / hash=0 / no-temporal-layers / open-gop / min-keyint=23 / keyint=250 / gop-lookahead=0 / bframes=8 / b-adapt=2 / b-pyramid / bframe-bias=0 / rc-lookahead=40 / lookahead-slices=5 / scenecut=40 / radl=0 / no-intra-refresh / ctu=64 / min-cu-size=8 / no-rect / no-amp / max-tu-size=32 / tu-inter-depth=1 / tu-intra-depth=1 / limit-tu=0 / rdoq-level=1 / dynamic-rd=0.00 / no-ssim-rd / signhide / no-tskip / nr-intra=0 / nr-inter=0 / no-constrained-intra / no-strong-intra-smoothing / max-merge=2 / limit-refs=3 / no-limit-modes / me=3 / subme=7 / merange=57 / temporal-mvp / weightp / weightb / no-analyze-src-pics / deblock=-2:-2 / no-sao / no-sao-non-deblock / rd=3 / no-early-skip / rskip / no-fast-intra / no-tskip-fast / no-cu-lossless / no-b-intra / no-splitrd-skip / rdpenalty=0 / psy-rd=2.00 / psy-rdoq=0.00 / no-rd-refine / no-lossless / cbqpoffs=0 / crqpoffs=0 / rc=abr / bitrate=6500 / qcomp=0.65 / qpstep=1 / stats-write=0 / stats-read=0 / vbv-maxrate=50000 / vbv-bufsize=50000 / vbv-init=0.9 / ipratio=1.40 / pbratio=1.30 / aq-mode=1 / aq-strength=1.00 / cutree / zone-count=0 / no-strict-cbr / qg-size=32 / no-rc-grain / qpmax=69 / qpmin=0 / no-const-vbv / sar=1 / overscan=0 / videoformat=5 / range=0 / colorprim=2 / transfer=2 / colormatrix=2 / chromaloc=0 / display-window=0 / max-cll=0,0 / min-luma=0 / max-luma=1023 / log2-max-poc-lsb=8 / vui-timing-info / vui-hrd-info / slices=1 / no-opt-qp-pps / no-opt-ref-list-length-pps / no-multi-pass-opt-rps / scenecut-bias=0.05 / no-opt-cu-delta-qp / no-aq-motion / no-hdr / no-hdr-opt / no-dhdr10-opt / no-idr-recovery-sei / analysis-reuse-level=5 / scale-factor=0 / refine-intra=0 / refine-inter=0 / refine-mv=0 / no-limit-sao / ctu-info=0 / no-lowpass-dct / refine-mv-type=0 / copy-pic=1 / max-ausize-factor=1.0 / no-dynamic-refine / no-single-sei
Default                                  : Yes
Forced                                   : No

Audio #1
ID                                       : 2
Format                                   : AC-3
Format/Info                              : Audio Coding 3
Codec ID                                 : A_AC3
Duration                                 : 2 h 1 min
Bit rate mode                            : Constant
Bit rate                                 : 384 kb/s
Channel(s)                               : 6 channels
Channel positions                        : Front: L C R, Side: L R, LFE
Sampling rate                            : 48.0 kHz
Frame rate                               : 31.250 FPS (1536 SPF)
Bit depth                                : 16 bits
Compression mode                         : Lossy
Stream size                              : 334 MiB (5%)
Title                                    : ПД - DVD
Language                                 : Ukrainian
Service kind                             : Complete Main
Default                                  : No
Forced                                   : Yes

Audio #2
ID                                       : 3
Format                                   : AC-3
Format/Info                              : Audio Coding 3
Codec ID                                 : A_AC3
Duration                                 : 2 h 1 min
Bit rate mode                            : Constant
Bit rate                                 : 640 kb/s
Channel(s)                               : 6 channels
Channel positions                        : Front: L C R, Side: L R, LFE
Sampling rate                            : 48.0 kHz
Frame rate                               : 31.250 FPS (1536 SPF)
Bit depth                                : 16 bits
Compression mode                         : Lossy
Stream size                              : 557 MiB (8%)
Title                                    : Original
Language                                 : English
Service kind                             : Complete Main
Default                                  : Yes
Forced                                   : No

Text #1
ID                                       : 4
Format                                   : UTF-8
Codec ID                                 : S_TEXT/UTF8
Codec ID/Info                            : UTF-8 Plain Text
Duration                                 : 2 h 0 min
Bit rate                                 : 110 b/s
Count of elements                        : 1639
Stream size                              : 97.5 KiB (0%)
Title                                    : Full
Language                                 : Ukrainian
Default                                  : No
Forced                                   : No

Text #2
ID                                       : 5
Format                                   : UTF-8
Codec ID                                 : S_TEXT/UTF8
Codec ID/Info                            : UTF-8 Plain Text
Duration                                 : 1 h 57 min
Bit rate                                 : 73 b/s
Count of elements                        : 2070
Stream size                              : 63.3 KiB (0%)
Title                                    : Full
Language                                 : English
Default                                  : No
Forced                                   : No

Menu
00:00:00.000                             : en:00:00:00.000
00:03:34.423                             : en:00:03:34.423
00:07:51.304                             : en:00:07:51.304
00:10:57.532                             : en:00:10:57.532
00:15:13.621                             : en:00:15:13.621
00:19:09.523                             : en:00:19:09.523
00:22:54.915                             : en:00:22:54.915
00:27:57.676                             : en:00:27:57.676
00:34:32.946                             : en:00:34:32.946
00:38:57.835                             : en:00:38:57.835
00:44:57.278                             : en:00:44:57.278
00:49:17.079                             : en:00:49:17.079
00:54:23.927                             : en:00:54:23.927
00:57:54.763                             : en:00:57:54.763
01:06:28.276                             : en:01:06:28.276
01:15:03.499                             : en:01:15:03.499
01:19:37.940                             : en:01:19:37.940
01:23:21.914                             : en:01:23:21.914
01:30:49.819                             : en:01:30:49.819
01:35:11.623                             : en:01:35:11.623
01:38:59.142                             : en:01:38:59.142
01:43:04.053                             : en:01:43:04.053
01:48:47.062                             : en:01:48:47.062
01:55:22.749                             : en:01:55:22.749
Світлини





Джерело: &
Особиста оцінка: 0 - не дивився


 Трекер:    Зареєстрований   

Завантажити / скачати фільм українською



відео для новачків



 Зареєстрований:   2019-02-11 09:58
 Розмір:   6.42 GB 
 Оцінка фільму:   3.3/10 (Голосів: 4)
   
Інші релізи
Ваш часовий пояс: GMT + 2 Години

Нова тема   Відповісти