Форсаж / The Fast and the Furious (2001) Remux 1080p 3xUkr/Eng | Sub Eng

Нові коментарі

Нова тема   Відповісти
Автор Повідомлення
MakRA 
VIP


З нами з: 10.11.18
Востаннє: 14.11.19
Повідомлень: 500

2019-02-11 00:37  
Форсаж / The Fast and the Furious (2001) Remux 1080p 3xUkr/Eng | Sub Eng

Форсаж / The Fast and the Furious (2001) Remux 1080p 3xUkr/Eng | Sub Eng

Український постер:



Жанр: екшн, кримінальний, бойовик
Країна: США, Німеччина



Кінокомпанія: Universal Pictures, Original Film, Mediastream Film GmbH & Co. Productions KG, Ardustry Entertainment
Режисер: Роб Коен [Rob Cohen]
Актори: Пол Вокер [Paul Walker], Він Дізель [Vin Diesel], Мішель Родрігес [Michelle Rodriguez], Джордана Брюстер [Jordana Brewster], Метт Шульце [Matt Schulze], Рік Юн [Rick Yune], Чед Ліндберґ [Chad Lindberg], Джонні Стронг [Johnny Strong].

Сюжет:
Брайан – поліцейський, впроваджений з особливим завданням у банду автогонщиків під проводом знаменитого чемпіона Доменіка Торетто. І хоча герой пам’ятає про свої службові обов’язки, закоханому в автомобілі і швидкість хлопцю стає все важче розрізняти ворогів і друзів в атмосфері захопливих незаконних гонок вулицями міста. Однак рано чи пізно настане час, коли зробити остаточний вибір все ж таки доведеться.

Красиві машини, справжні почуття і запаморочливі погоні по нічних вулицях Лос-Анджелеса!...


Саундтреки:


Live - Deep Enough
Benny Cassette - Watch Your Back
Shawna - Say Aah
Limp Bizkit, DMX, Redman та Method Man - Rollin'
Ja Rule та Vita - Furious
Caddillac Tah - Pov City Anthem
Digital Assasins - Lock It Down
Organic Audio - Nurega
Ludacris - Area Codes
Durrell Babbs та Ja Rule- Race Against Time Part 2
Ja Rule - Life Ain'ta Game
Santana - Evil Ways
Magdaleno Robles Jr. та Senen Reyes - Nigga Wit a Badge
Molotov - Polkas Palabras
Say Yes - Mercedes Benz
Orishas - Atrevido
Dope - Debonaire
Saliva - Superstar
Faith Evans, Ja Rule, Vita та Caddillac Tah - Good Life (Remix)
BT - Nocturnal Transmission
Brian Tyler - Fourth Floor (Score).


Тривалість: 01:46:51
Якість: Remux 1080
Відео:
кодек: VC-1
розмір кадру: 1920 х 1080
бітрейт: 24,1 Mb/s

Аудіо # 1:
мова: українська
переклад: багатоголосий закадровий [ICTV] | студія ТВ+
кодек: 5.1
бітрейт: 448 kb/s

Аудіо # 2:
мова: українська
переклад: багатоголосий закадровий [Україна] | студія "Так Треба Продакшн"
кодек: 5.1
бітрейт: 448 kb/s

Аудіо # 3:
мова: українська
переклад: двоголосий закадровий [Інтер]
кодек: 2.0
бітрейт: 192 kb/s

Аудіо # 4:
мова: англійська
переклад: оригінал
кодек: -HD 5.1
бітрейт: 4 592 kb/s

Аудіо # 5:
мова: англійська
переклад: оригінал
кодек: 5.1
бітрейт: 384 kb/s

Аудіо # 6:
мова: англійська
переклад: оригінал | коментарі
кодек: 2.0
бітрейт: 192 kb/s

Субтитри # 1:
мова: англійська
тип: пререндерні
формат: *.pgs

Субтитри # 2:
мова: англійська | на коментарі
тип: пререндерні
формат: *.pgs
Info
General
Unique ID : 289666986516875652333881314974519549835 (0xD9EBD513243ACF7AB109F737EF0C5F8B)
Complete name : F:\Екшн, бойовики\Форсаж. Колекція\The Fast and the Furious (2001) Remux 1080p 3хUkrEng Sub Eng [Hurtom].
Format :
Format version : Version 4 / Version 2
File size : 22.7 GiB
Duration : 1 h 46 min
Overall bit rate : 30.4 Mb/s
Movie name : Форсаж / The Fast and the Furious (2001) Remux 1080p 3хUkr/Eng | Sub Eng [Hurtom]
Encoded date : UTC 2019-02-10 21:26:23
Writing application : v25.0.0 ('Prog Noir') 64-bit
Writing library : libebml v1.3.6 + v1.4.9

Video
ID : 1
Format : VC-1
Format profile : [email protected]
Codec ID : V_MS/VFW/FOURCC / WVC1
Codec ID/Hint : Microsoft
Duration : 1 h 46 min
Bit rate : 24.1 Mb/s
Width : 1 920 pixels
Height : 1 080 pixels
Display aspect ratio : 16:9
Frame rate mode : Constant
Frame rate : 23.976 (24000/1001) FPS
Color space : YUV
Chroma subsampling : 4:2:0
Bit depth : 8 bits
Scan type : Progressive
Compression mode : Lossy
Bits/(Pixel*Frame) : 0.485
Stream size : 18.0 GiB (79%)
Title : The Fast and the Furious (2001) Remux 1080p 3хUkr/Eng | Sub Eng [Hurtom]
Language : Ukrainian
Default : Yes
Forced : Yes

Audio #1
ID : 2
Format : AC-3
Format/Info : Audio Coding 3
Format settings, Endianness : Big
Codec ID : A_AC3
Duration : 1 h 46 min
Bit rate mode : Constant
Bit rate : 448 kb/s
Channel(s) : 6 channels
Channel positions : Front: L C R, Side: L R, LFE
Sampling rate : 48.0 kHz
Frame rate : 31.250 FPS (1536 SPF)
Bit depth : 16 bits
Compression mode : Lossy
Stream size : 342 MiB (1%)
Title : MVO [ICTV] | студія ТВ+
Language : Ukrainian
Service kind : Complete Main
Default : Yes
Forced : Yes

Audio #2
ID : 3
Format : AC-3
Format/Info : Audio Coding 3
Format settings, Endianness : Big
Codec ID : A_AC3
Duration : 1 h 46 min
Bit rate mode : Constant
Bit rate : 448 kb/s
Channel(s) : 6 channels
Channel positions : Front: L C R, Side: L R, LFE
Sampling rate : 48.0 kHz
Frame rate : 31.250 FPS (1536 SPF)
Bit depth : 16 bits
Compression mode : Lossy
Stream size : 342 MiB (1%)
Title : MVO [Україна] | студія "Так Треба Продакшн"
Language : Ukrainian
Service kind : Complete Main
Default : No
Forced : No

Audio #3
ID : 4
Format : AC-3
Format/Info : Audio Coding 3
Format settings, Endianness : Big
Codec ID : A_AC3
Duration : 1 h 46 min
Bit rate mode : Constant
Bit rate : 192 kb/s
Channel(s) : 2 channels
Channel positions : Front: L R
Sampling rate : 48.0 kHz
Frame rate : 31.250 FPS (1536 SPF)
Bit depth : 16 bits
Compression mode : Lossy
Stream size : 147 MiB (1%)
Title : MVO [Інтер]
Language : Ukrainian
Service kind : Complete Main
Default : No
Forced : No

Audio #4
ID : 5
Format :
Format/Info : Digital Theater Systems
Format profile : MA / Core
Mode : 16
Format settings, Endianness : Big
Codec ID : A_DTS
Duration : 1 h 46 min
Bit rate mode : Variable / Constant
Bit rate : 4 592 kb/s / 1 509 kb/s
Channel(s) : 6 channels
Channel positions : Front: L C R, Side: L R, LFE
Sampling rate : 48.0 kHz
Frame rate : 93.750 FPS (512 SPF)
Bit depth : 24 bits
Compression mode : Lossless / Lossy
Stream size : 3.43 GiB (15%)
Title : Original
Language : English
Default : No
Forced : No

Audio #5
ID : 6
Format : AC-3
Format/Info : Audio Coding 3
Format settings, Endianness : Big
Codec ID : A_AC3
Duration : 1 h 46 min
Bit rate mode : Constant
Bit rate : 384 kb/s
Channel(s) : 6 channels
Channel positions : Front: L C R, Side: L R, LFE
Sampling rate : 48.0 kHz
Frame rate : 31.250 FPS (1536 SPF)
Bit depth : 16 bits
Compression mode : Lossy
Stream size : 294 MiB (1%)
Title : Original
Language : English
Service kind : Complete Main
Default : No
Forced : No

Audio #6
ID : 7
Format : AC-3
Format/Info : Audio Coding 3
Mode : Dolby Digital
Format settings, Endianness : Big
Codec ID : A_AC3
Duration : 1 h 46 min
Bit rate mode : Constant
Bit rate : 192 kb/s
Channel(s) : 2 channels
Channel positions : Front: L R
Sampling rate : 48.0 kHz
Frame rate : 31.250 FPS (1536 SPF)
Bit depth : 16 bits
Compression mode : Lossy
Stream size : 147 MiB (1%)
Title : Original | commentary
Language : English
Service kind : Complete Main
Default : No
Forced : No

Text #1
ID : 8
Format : PGS
Muxing mode : zlib
Codec ID : S_HDMV/PGS
Codec ID/Info : Picture based subtitle format used on BDs/HD-DVDs
Duration : 1 h 45 min
Bit rate : 26.7 kb/s
Count of elements : 1774
Stream size : 20.2 MiB (0%)
Title : Eng
Language : English
Default : No
Forced : No

Text #2
ID : 9
Format : PGS
Muxing mode : zlib
Codec ID : S_HDMV/PGS
Codec ID/Info : Picture based subtitle format used on BDs/HD-DVDs
Duration : 1 h 42 min
Bit rate : 54.1 kb/s
Count of elements : 3370
Stream size : 39.8 MiB (0%)
Title : Eng | commentary
Language : English
Default : No
Forced : No
Скріншоти
Джерело: &
Особиста оцінка: 10 - без зайвих вагань рекомендую всім!
Подяка п. Vasua95 за перші дві доріжки та п. robotron005 і п. lenina4040 за третю.



Золотий реліз (завантажене не впливає на рейтинг)
 Трекер:    Зареєстрований   

Завантажити / скачати фільм українською



відео для новачків



 Зареєстрований:   2019-02-11 00:37
 Розмір:   22.68 GB 
 Оцінка фільму:   8.9/10 (Голосів: 8)
   
Інші релізи
11FrYkT 
Модератор відео


З нами з: 20.02.11
Востаннє: 14.11.19
Повідомлень: 6321

2019-02-11 11:59  
MakRA написано:
Швидкі та люті

якщо так переклала якась із студій то вкажіть біля доріжки

Ваш часовий пояс: GMT + 2 Години

Нова тема   Відповісти