Форсаж / The Fast and the Furious (2001) Remux 1080p 3xUkr/Eng | Sub Eng

Нові коментарі

Нова тема   Відповісти
Автор Повідомлення
MakRA 
VIP


З нами з: 11.11.18
Востаннє: 24.09.20
Повідомлень: 1120

2019-02-11 01:37  
Форсаж / The Fast and the Furious (2001) Remux 1080p 3xUkr/Eng | Sub Eng

Форсаж / The Fast and the Furious (2001) Remux 1080p 3xUkr/Eng | Sub Eng

Українські постери:




Жанр: екшн, кримінальний
Країна: США , Німеччина



Кінокомпанія: Mediastream Film GmbH & Co. Productions KG, Original Film, Universal Pictures
Режисер: Роб Коен [Rob Cohen]
Актори: Пол Вокер [Paul Walker], Він Дізель [Vin Diesel], Мішель Родріґез [Michelle Rodriguez], Джордана Брюстер [Jordana Brewster], Мет Шульц [Matt Schulze], Рік Юн [Rick Yune], Чед Ліндберґ [Chad Lindberg], Джонні Стронг [Johnny Strong], Джа Рул [Ja Rule], Тед Лівайн [Ted Levine]

Сюжет:
Брайан – поліцейський, впроваджений з особливим завданням у банду автогонщиків під проводом знаменитого чемпіона Доменіка Торетто. І хоча герой пам’ятає про свої службові обов’язки, закоханому в автомобілі і швидкість хлопцю стає все важче розрізняти ворогів і друзів в атмосфері захопливих незаконних гонок вулицями міста. Однак рано чи пізно настане час, коли зробити остаточний вибір все ж таки доведеться.

Красиві машини, справжні почуття і запаморочливі погоні по нічних вулицях Лос-Анджелеса!...


Саундтреки:


Live - Deep Enough
Benny Cassette - Watch Your Back
Shawna - Say Aah
Limp Bizkit, DMX, Redman та Method Man - Rollin'
Ja Rule та Vita - Furious
Caddillac Tah - Pov City Anthem
Digital Assasins - Lock It Down
Organic Audio - Nurega
Ludacris - Area Codes
Durrell Babbs та Ja Rule- Race Against Time Part 2
Ja Rule - Life Ain'ta Game
Santana - Evil Ways
Magdaleno Robles Jr. та Senen Reyes - Nigga Wit a Badge
Molotov - Polkas Palabras
Say Yes - Mercedes Benz
Orishas - Atrevido
Dope - Debonaire
Saliva - Superstar
Faith Evans, Ja Rule, Vita та Caddillac Tah - Good Life (Remix)
BT - Nocturnal Transmission
Brian Tyler - Fourth Floor (Score).


Тривалість: 01:46:51
Якість: Remux 1080p
Відео:
кодек: VC-1
розмір кадру: 1920 х 1080
бітрейт: 24,1 Mb/s

Аудіо # 1:
мова: українська
переклад: багатоголосий закадровий | студія ТВ+
кодек: 5.1
бітрейт: 448 kb/s
Про озвучення:
Аудіо # 2:
мова: українська
переклад: багатоголосий закадровий | студія "Так Треба Продакшн"
кодек: 5.1
бітрейт: 448 kb/s
Про озвучення:
Ролі озвучили: Юрій Гребельник, Дмитро Терещук, Анатолій Пашнін, Світлана Шекера.
Аудіо # 3:
мова: українська
переклад: багатоголосий закадровий
кодек: 2.0
бітрейт: 192 kb/s
Про озвучення:
Ролі озвучили: Володимир Терещук, Олена Бліннікова, Юрій Гребельник, і ще один актор.
Аудіо # 4:
мова: англійська
переклад: оригінал
кодек: -HD MA 5.1
бітрейт: 4592 kb/s

Аудіо # 5:
мова: англійська
переклад: оригінал
кодек: 5.1
бітрейт: 384 kb/s

Аудіо # 6:
мова: англійська
переклад: оригінал | коментарі режисера Роба Коена №1
кодек: 2.0
бітрейт: 192 kb/s

Аудіо # 7:
мова: англійська
переклад: оригінал | коментарі режисера Роба Коена №2
кодек: LBR 2.0
бітрейт: 187 kb/s

Субтитри # 1: (Full)
мова: англійська
тип: програмні (м'які)
формат: *.srt

Субтитри # 2: (Full)
мова: англійська
тип: пререндерні
формат: *.pgs

Субтитри # 3-4: (Full) | на коментарі режисера
мова: англійська
тип: пререндерні
формат: *.pgs

Збережено оригінальні іменовані розділи, як на Blu-ray.
Info
General
Unique ID : 12145787223085635716002132153692000012 (0x923318B413AB690D499C7F766FB0F0C)
Complete name : I:\Fast & Furious Movie Collection\The Fast and the Furious (2001) Remux 1080p 3хUkrEng Sub Eng [Hurtom].
Format :
Format version : Version 4
File size : 22.8 GiB
Duration : 1 h 46 min
Overall bit rate mode : Variable
Overall bit rate : 30.6 Mb/s
Movie name : Форсаж / The Fast and the Furious (2001) Remux 1080p 3хUkr/Eng | Sub Eng [Hurtom]
Encoded date : UTC 2020-02-26 23:11:38
Writing application : v25.0.0 ('Prog Noir') 64-bit
Writing library : libebml v1.3.6 + v1.4.9
Cover : Yes
Attachments : cover.jpg

Video
ID : 1
Format : VC-1
Format profile : [email protected]
Codec ID : V_MS/VFW/FOURCC / WVC1
Codec ID/Hint : Microsoft
Duration : 1 h 46 min
Bit rate : 24.1 Mb/s
Width : 1 920 pixels
Height : 1 080 pixels
Display aspect ratio : 16:9
Frame rate mode : Constant
Frame rate : 23.976 (24000/1001) FPS
Color space : YUV
Chroma subsampling : 4:2:0
Bit depth : 8 bits
Scan type : Progressive
Compression mode : Lossy
Bits/(Pixel*Frame) : 0.485
Stream size : 18.0 GiB (79%)
Title : The Fast and the Furious (2001) Remux 1080p 3хUkr/Eng | Sub Eng [Hurtom]
Language : Ukrainian
Default : Yes
Forced : Yes

Audio #1
ID : 2
Format : AC-3
Format/Info : Audio Coding 3
Commercial name : Dolby Digital
Codec ID : A_AC3
Duration : 1 h 46 min
Bit rate mode : Constant
Bit rate : 448 kb/s
Channel(s) : 6 channels
Channel layout : L R C LFE Ls Rs
Sampling rate : 48.0 kHz
Frame rate : 31.250 FPS (1536 SPF)
Compression mode : Lossy
Stream size : 342 MiB (1%)
Title : MVO [ICTV] 5.1 | студія ТВ+
Language : Ukrainian
Service kind : Complete Main
Default : Yes
Forced : Yes

Audio #2
ID : 3
Format : AC-3
Format/Info : Audio Coding 3
Commercial name : Dolby Digital
Codec ID : A_AC3
Duration : 1 h 46 min
Bit rate mode : Constant
Bit rate : 448 kb/s
Channel(s) : 6 channels
Channel layout : L R C LFE Ls Rs
Sampling rate : 48.0 kHz
Frame rate : 31.250 FPS (1536 SPF)
Compression mode : Lossy
Stream size : 342 MiB (1%)
Title : MVO [УКРАЇНА] 5.1 | студія "Так Треба Продакшн"
Language : Ukrainian
Service kind : Complete Main
Default : No
Forced : No

Audio #3
ID : 4
Format : AC-3
Format/Info : Audio Coding 3
Commercial name : Dolby Digital
Codec ID : A_AC3
Duration : 1 h 46 min
Bit rate mode : Constant
Bit rate : 192 kb/s
Channel(s) : 2 channels
Channel layout : L R
Sampling rate : 48.0 kHz
Frame rate : 31.250 FPS (1536 SPF)
Compression mode : Lossy
Stream size : 147 MiB (1%)
Title : MVO [ІНТЕР] 2.0
Language : Ukrainian
Service kind : Complete Main
Default : No
Forced : No

Audio #4
ID : 5
Format : XLL
Format/Info : Digital Theater Systems
Commercial name : -HD Master Audio
Codec ID : A_DTS
Duration : 1 h 46 min
Bit rate mode : Variable
Bit rate : 4 592 kb/s
Channel(s) : 6 channels
Channel layout : C L R Ls Rs LFE
Sampling rate : 48.0 kHz
Frame rate : 93.750 FPS (512 SPF)
Bit depth : 24 bits
Compression mode : Lossless
Delay relative to video : 42 ms
Stream size : 3.43 GiB (15%)
Title : Original -HD MA 5.1
Language : English
Default : No
Forced : No

Audio #5
ID : 6
Format : AC-3
Format/Info : Audio Coding 3
Commercial name : Dolby Digital
Codec ID : A_AC3
Duration : 1 h 46 min
Bit rate mode : Constant
Bit rate : 384 kb/s
Channel(s) : 6 channels
Channel layout : L R C LFE Ls Rs
Sampling rate : 48.0 kHz
Frame rate : 31.250 FPS (1536 SPF)
Compression mode : Lossy
Stream size : 294 MiB (1%)
Title : Original 5.1
Language : English
Service kind : Complete Main
Default : No
Forced : No

Audio #6
ID : 7
Format : AC-3
Format/Info : Audio Coding 3
Commercial name : Dolby Digital
Codec ID : A_AC3
Duration : 1 h 46 min
Bit rate mode : Constant
Bit rate : 192 kb/s
Channel(s) : 2 channels
Channel layout : L R
Sampling rate : 48.0 kHz
Frame rate : 31.250 FPS (1536 SPF)
Compression mode : Lossy
Delay relative to video : 42 ms
Stream size : 147 MiB (1%)
Title : Original 2.0 | Commentary with Director Rob Cohen
Language : English
Service kind : Complete Main
Default : No
Forced : No

Audio #7
ID : 8
Format : LBR
Format/Info : Digital Theater Systems
Commercial name : Express
Codec ID : A_DTS
Duration : 1 h 46 min
Bit rate mode : Constant
Bit rate : 192 kb/s
Channel(s) : 2 channels
Channel layout : L R
Sampling rate : 48.0 kHz
Frame rate : 11.719 FPS (4096 SPF)
Bit depth : 24 bits
Compression mode : Lossy
Delay relative to video : 42 ms
Stream size : 147 MiB (1%)
Title : Original Express 2.0 | Commentary with Director Rob Cohen
Language : English
Default : No
Forced : No

Text #1
ID : 9
Format : UTF-8
Codec ID : S_TEXT/UTF8
Codec ID/Info : UTF-8 Plain Text
Duration : 1 h 45 min
Bit rate : 42 b/s
Count of elements : 885
Stream size : 32.7 KiB (0%)
Title : Eng (Full) SRT
Language : English
Default : No
Forced : No

Text #2
ID : 10
Format : PGS
Muxing mode : zlib
Codec ID : S_HDMV/PGS
Codec ID/Info : Picture based subtitle format used on BDs/HD-DVDs
Duration : 1 h 45 min
Bit rate : 26.7 kb/s
Count of elements : 1774
Stream size : 20.2 MiB (0%)
Title : Eng (Full) PGS
Language : English
Default : No
Forced : No

Text #3
ID : 11
Format : PGS
Muxing mode : zlib
Codec ID : S_HDMV/PGS
Codec ID/Info : Picture based subtitle format used on BDs/HD-DVDs
Duration : 1 h 46 min
Bit rate : 60.8 kb/s
Count of elements : 2893
Stream size : 46.4 MiB (0%)
Title : Eng (Full) | by commentary with Director Rob Cohen #1
Language : English
Default : No
Forced : No

Text #4
ID : 12
Format : PGS
Muxing mode : zlib
Codec ID : S_HDMV/PGS
Codec ID/Info : Picture based subtitle format used on BDs/HD-DVDs
Duration : 1 h 42 min
Bit rate : 54.1 kb/s
Count of elements : 3370
Stream size : 39.8 MiB (0%)
Title : Eng (Full) | by commentary with Director Rob Cohen #2
Language : English
Default : No
Forced : No

Menu
00:00:00.000 : en:The Hijackers
00:02:56.885 : en:Enter the Eclipse
00:10:20.244 : en:The Snowmans's Bet
00:15:07.531 : en:NOS Fest
00:26:40.473 : en:Big Trouble in Little Saigon
00:29:59.214 : en:Right to Party
00:34:42.872 : en:A Double Life
00:38:08.494 : en:A Ten-Second Car
00:44:56.402 : en:Undercover Blues
00:55:26.489 : en:A Quarter Mile at a Time
00:58:40.433 : en:Undercover Love
01:01:45.743 : en:The Takedown of Johnny Tran
01:09:25.119 : en:Race Wars
01:12:02.026 : en:Jesse Throws Down the Pink
01:15:23.685 : en:Mia's Choice
01:20:44.172 : en:Hijackers' Hell
01:29:59.811 : en:Fury in Echo Park
01:34:58.317 : en:Race Against the Train
01:38:05.462 : en:Honor
01:39:57.992 : en:End Titles
Скріншоти
Джерело: &
Подяка п. Vasua95 за перші дві доріжки та п. robotron005 і п. lenina4040 за третю.
Особиста оцінка: 10 - без зайвих вагань рекомендую всім!




Золотий реліз (завантажене не впливає на рейтинг)
 Трекер:    Зареєстрований   

Завантажити / скачати фільм українською



відео для новачків



 Зареєстрований:   2020-02-27 03:23
 Розмір:   22.83 GB 
 Оцінка фільму:   9.2/10 (Голосів: 12)
   
Інші релізи
11FrYkT 
Модератор відео


З нами з: 20.02.11
Востаннє: 24.09.20
Повідомлень: 7004

2019-02-11 12:59  
MakRA написано:
Швидкі та люті

якщо так переклала якась із студій то вкажіть біля доріжки

Ozverin 
Відео Гуртом - підтримка та поширення
Відео Гуртом - підтримка та поширення


З нами з: 21.11.08
Востаннє: 14.08.20
Повідомлень: 67

2020-02-01 14:24  
станьте на роздачу, будь ласочка
MakRA 
VIP


З нами з: 11.11.18
Востаннє: 24.09.20
Повідомлень: 1120

2020-02-27 03:23  
Реліз оновлено 27.02.2020
Заміна відео на видання з європейського блурея, додано коментарі режисера, іменовані розділи, оригінальну доріжку 5.1 та субтитри на коментарі.

Також підправлено оформлення і додано інформацію про озвучення

Ваш часовий пояс: GMT + 2 Години

Нова тема   Відповісти