Шерлок (Сезон 1) / Sherlock (Season 1) (2010) Remux 1080p 2xUkr/Eng | Sub Eng

Нові коментарі

Нова тема   Відповісти
Останній раз роздавалося alepuz (2019-07-14)
Автор Повідомлення
Argentum 
Поважний учасник


З нами з: 25.09.11
Востаннє: 18.08.19
Повідомлень: 206

2019-02-10 17:54  
Шерлок (Сезон 1) / Sherlock (Season 1) (2010) Remux 1080p 2xUkr/Eng | Sub Eng


Шерлок (Сезон 1) / Sherlock (Season 1) (2010) Remux 1080p 2xUkr/Eng | Sub Eng


Жанр: детектив
Країна: Велика Британія



Кінокомпанія: BBC
Режисер: Юрос Лін, Пол Мак-Ґіґан
Актори: Бенедикт Камбербетч, Мартін Фріман, Уна Стаббс, Лу Брілі, Руперт Грейвс, Зої Телфорд, Вінетт Робінсон, Джемма Чан, Джині Спарк та інші

Сюжет:
2010 рік. Військовий лікар Джон Ватсон повертається до Лондона після служби в Афганістані. Він став інвалідом після отриманого поранення, і абсолютно не уявляє, як прожити на військову пенсію, а тим паче зняти квартиру. Приятель радить Джону розділити витрати по зніманню квартири з ким-небудь ще. Він зводить його з ексцентричним приватним детективом на ім'я Шерлок, який грає на скрипці і може розповісти про співрозмовника все після двох хвилин спілкування ...


Тривалість: 1 серія: 01:30:00 (цілком серій: 3)
Перелік серій
1. Етюд у рожевих тонах / A Study in Pink
Прем'єра: 25 липня 2010 (Україна: 15.01.2012)
Режисер: Пол Маꥳґан.
Сценарій: Стівен Моффат.
Сюжет: поліція розслідує смерть кількох людей, які вочевидь наклали на себе руки, прийнявши отруйну пігулку. Слідчий звертається до неофіційного консультанта Шерлока Холмса. Тим часом, військовий лікар Джон Ватсон, ветеран війни в Афганістані, повернувшись у Лондон, зустрічає свого старго друга і знайомиться з Шерлокомм. Холмс одразу вражає доктора своїми здібностями до аналізу і дедукції.
Основа: «Етюд у багряних тонах».

2. Сліпий банкір / The Blind Banker
Прем'єра: 1 серпня 2010 (Україна: 16.01.2012)
Режисер: Юрус Лін.
Сценарій: Стефен Томпсон.
Сюжет: старий друг Шерлока наймає його розслідувати містичне проникнення в банк у діловій частині Лондона. З'ясовується, що символи, які намальовані на стіні - це закодоване повідомлення одному з працівників банку, якого пізніше знаходять мертвим. Наступного дня помирає журналіст однієї з лондонських газет, і виявляється, що до його смерті також причетні загадкові символи.
Основа: «Танцюючі чоловічки», «Долина жаху» (епізод з книгою).

3. Велика гра / The Great Game
Прем'єра: 8 серпня 2010 (Україна: 17.01.2012)
Режисер: Пол Маꥳґан.
Сценарій: Марк Ґатіс.
Сюжет: Майкрофт намагається вмовити Шерлока взятися за розслідування підозрілої смерті урядового працівника, який був задіяний у дуже секретному проекті міністерства оборони - проект Брюса-Партінгтона. Але Шерлок відмовляється, доручивши цю справу Ватсону. Увагу Холмса привертає дещо інше. Невідомий злочинець розпочинає з ним небезпечну гру, ставки у якій життя безневинних людей.
Основа: «Остання справа Холмса», «Креслення Брюса-Партінгтона», «Морський договір», «П'ять апельсинових зерняток».
Якість: Remux
Відео:
кодек:
розмір кадру: 1920 х 1080
бітрейт: 30 Мб/с

Аудіо # 1:
мова: українська
переклад: професійний дубльований
кодек: 2.0
бітрейт: 256 кб/с

Аудіо # 2:
мова: українська
переклад: багатоголосий закадровий
кодек: 5.1
бітрейт: 448 кб/с

Аудіо # 3:
мова: англійська
переклад: оригінал
кодек: 5.1
бітрейт: 448 кб/с

Субтитри: (форсовані)
мова: українська
тип: програмні (м'які)
формат: *.srt

Субтитри:
мова: англійська
тип: програмні (м'які)
формат: *.srt
Info
General
Unique ID : 291557887270537575668243642864203904653 (0xDB5801AE0665DCA5573BFD65E03EB68D)
Complete name : Sherlock. S01E01 (2010) [Ukr, Eng] Remux 1080p [Hurtom].
Format :
Format version : Version 4
File size : 19.1 GiB
Duration : 1 h 28 min
Overall bit rate mode : Variable
Overall bit rate : 31.1 Mb/s
Movie name : S01E01. A Study in Pink
Encoded date : UTC 2019-02-10 12:58:19
Writing application : v31.0.0 ('Dolores In A Shoestand') 64-bit
Writing library : libebml v1.3.6 + v1.4.9

Video
ID : 1
Format : AVC
Format/Info : Advanced Video Codec
Format profile : [email protected]
Format settings : CABAC / 4 Ref Frames
Format settings, CABAC : Yes
Format settings, ReFrames : 4 frames
Codec ID : V_MPEG4/ISO/AVC
Duration : 1 h 28 min
Bit rate mode : Variable
Bit rate : 30.0 Mb/s
Maximum bit rate : 35.0 Mb/s
Width : 1 920 pixels
Height : 1 080 pixels
Display aspect ratio : 16:9
Frame rate mode : Variable
Frame rate : 50.000 FPS
Original frame rate : 25.000 FPS
Standard : PAL
Color space : YUV
Chroma subsampling : 4:2:0
Bit depth : 8 bits
Scan type : Interlaced
Scan type, store method : Separated fields
Scan order : Top Field First
Bits/(Pixel*Frame) : 0.289
Stream size : 18.4 GiB (96%)
Title : AVC 1920*1080 @ 30 Mbps
Language : Multiple languages
Default : Yes
Forced : Yes
Color range : Limited
Color primaries : BT.709
Transfer characteristics : BT.709
Matrix coefficients : BT.709

Audio #1
ID : 2
Format : AC-3
Format/Info : Audio Coding 3
Commercial name : Dolby Digital
Codec ID : A_AC3
Duration : 1 h 28 min
Bit rate mode : Constant
Bit rate : 256 kb/s
Channel(s) : 2 channels
Channel layout : L R
Sampling rate : 48.0 kHz
Frame rate : 31.250 FPS (1536 SPF)
Bit depth : 16 bits
Compression mode : Lossy
Stream size : 161 MiB (1%)
Title : 2.0 @ 256 Kbps # 1+1
Language : Ukrainian
Service kind : Complete Main
Default : Yes
Forced : Yes

Audio #2
ID : 3
Format : AC-3
Format/Info : Audio Coding 3
Commercial name : Dolby Digital
Codec ID : A_AC3
Duration : 1 h 28 min
Bit rate mode : Constant
Bit rate : 448 kb/s
Channel(s) : 6 channels
Channel layout : L R C LFE Ls Rs
Sampling rate : 48.0 kHz
Frame rate : 31.250 FPS (1536 SPF)
Bit depth : 16 bits
Compression mode : Lossy
Stream size : 282 MiB (1%)
Title : 5.1 @ 448 Kbps # Baibako
Language : Ukrainian
Service kind : Complete Main
Default : No
Forced : No

Audio #3
ID : 4
Format : AC-3
Format/Info : Audio Coding 3
Commercial name : Dolby Digital
Codec ID : A_AC3
Duration : 1 h 28 min
Bit rate mode : Constant
Bit rate : 448 kb/s
Channel(s) : 6 channels
Channel layout : L R C LFE Ls Rs
Sampling rate : 48.0 kHz
Frame rate : 31.250 FPS (1536 SPF)
Bit depth : 16 bits
Compression mode : Lossy
Stream size : 282 MiB (1%)
Title : 5.1 @ 448 Kbps
Language : English
Service kind : Complete Main
Default : No
Forced : No

Text #1
ID : 5
Format : UTF-8
Codec ID : S_TEXT/UTF8
Codec ID/Info : UTF-8 Plain Text
Duration : 1 h 1 min
Bit rate : 3 b/s
Count of elements : 45
Stream size : 1.36 KiB (0%)
Title : Forced
Language : Ukrainian
Default : No
Forced : No

Text #2
ID : 6
Format : UTF-8
Codec ID : S_TEXT/UTF8
Codec ID/Info : UTF-8 Plain Text
Duration : 1 h 25 min
Bit rate : 80 b/s
Count of elements : 1377
Stream size : 50.3 KiB (0%)
Title : Full
Language : English
Default : No
Forced : No
Скріншоти







Джерело: &
Особиста оцінка: 10 - без зайвих вагань рекомендую всім!


Авторський реліз (завантажувати можна без реєстрації)
 Трекер:    Зареєстрований   

Завантажити / скачати серіал українською



відео для новачків



 Зареєстрований:   2019-02-10 17:54
 Розмір:   57.81 GB 
 Оцінка серіалу:   7/10 (Голосів: 6)
   
T-Mon 
Свій


З нами з: 30.07.10
Востаннє: 18.08.19
Повідомлень: 89

2019-02-10 18:29  
Рейтинг 9.2. Це якась повна туфта. Серіал відвертий шлак.
ricardo13 
Частий відвідувач


З нами з: 12.12.09
Востаннє: 17.08.19
Повідомлень: 25

2019-06-15 15:54  
T-Mon написано:
Серіал відвертий шлак.

Так, повне лайно.
Хто не вірить, хай починає з другої серії четвертого сезону.

Ваш часовий пояс: GMT + 2 Години

Нова тема   Відповісти