Чорний понеділок (Сезон 1, серії 1-3) / Black Monday (Season 1, episodes 1-3) (2019) 1080p H.265 Ukr/Eng | Sub Eng

Нові коментарі

Нова тема   Відповісти
Автор Повідомлення
-Star-Lord- 
VIP


З нами з: 09.08.18
Востаннє: 17.02.19
Повідомлень: 607

2019-02-10 16:24  
Чорний понеділок (Сезон 1, серії 1-3) / Black Monday (Season 1, episodes 1-3) (2019) 1080p H.265 Ukr/Eng | Sub Eng

Чорний понеділок (Сезон 1, серії 1-3) / Black Monday (Season 1, episodes 1-3) (2019) 1080p H.265 Ukr/Eng | Sub Eng


Жанр: комедія
Країна: США
Кінокомпанія: Point Grey Pictures, Shark vs. Bear, Showtime, Sony Pictures Television
Режисер: Еван Голдберг, Сет Роген
Актори: Дон Чідл, Ендрю Реннеллс, Пол Шеєр, Реджина Холл, Юджин Кордеро, Кадім Хардісон, Курт Браунолер, Едвін Гейджіано

Сюжет:
Захоплива авантюрна комедія від Сета Рогена та Евана Голдберга заснована на реальних подіях про кількох фінансових ділків, що вирішила заробити на фінансовій кризі.

Тривалість: 1 серія: 35:00 (цілком серій: 3)
Перелік серій
1 серія: 365
2 серія: 364
3 серія: 339
Якість:
Відео:
кодек: H.265 (HEVC)
розмір кадру: 1920 x 800
бітрейт: 4 937 кб/с
бітова глибина: 10 біт
Увага! Перед завантаженням переконайтесь, що ваш пристрій відтворення (та/або ПЗ) підтримує H.265 (HEVC)

Аудіо # 1:
мова: українська
переклад: багатоголосий закадровий | DniproFilm
кодек: AC-3 5.1
бітрейт: 384 кб/с
Підтримати українське озвучення
Для студії DniproFilm дуже важлива популярність, чим популярнішою буде студія, тим більшу кількість українського озвучення до нових фільмів та серіалів в неї замовлятимуть. Тому прохання до не байдужих підписуватися на їх телеграм канал
Аудіо # 2:
мова: англійська
переклад: оригінал
кодек: E-AC-3 5.1
бітрейт: 640 кб/с

Субтитри # 1:
мова: англійська (SDH),
тип: програмні (м'які)
формат: *.srt


Info
Код:
General
Unique ID                                : 225915928574193066590867666189875833747 (0xA9F5D33EB3BF11A50AC41B8935E26B93)
Complete name                            : F:\Video\Series\Black Monday (Season 1) [2019] 1080p H.265 [UKR_ENG]\1. Black Monday (2019) - S01E01 1080p H.265  [UKR_ENG].
Format                                   :
Format version                           : Version 4
File size                                : 1.52 GiB
Duration                                 : 35 min 43 s
Overall bit rate                         : 6 082 kb/s
Movie name                               : Black Monday (2019) - S01E01 - 365
Writing application                      : Lavf
Writing library                          : Lavf
Cover                                    : Yes
ErrorDetectionType                       : Per level 1
Attachments                              : cover.jpg
Language                                 : und

Video
ID                                       : 1
Format                                   : HEVC
Format/Info                              : High Efficiency Video Coding
Format profile                           : Main [email protected]@High
Codec ID                                 : V_MPEGH/ISO/HEVC
Duration                                 : 35 min 43 s
Bit rate                                 : 4 937 kb/s
Width                                    : 1 920 pixels
Height                                   : 800 pixels
Display aspect ratio                     : 2.40:1
Frame rate mode                          : Constant
Frame rate                               : 23.976 (24000/1001) FPS
Color space                              : YUV
Chroma subsampling                       : 4:2:0
Bit depth                                : 10 bits
Bits/(Pixel*Frame)                       : 0.134
Stream size                              : 1.23 GiB (81%)
Title                                    : Black Monday (2019) - S01E01 - 365
Writing library                          : x265 2.9+9-f74003e88622:[Windows][GCC 8.2.0][64 bit] 10bit
Encoding settings                        : cpuid=1111039 / frame-threads=5 / numa-pools=4 / wpp / no-pmode / no-pme / no-psnr / no-ssim / log-level=3 / input-csp=1 / input-res=1920x800 / interlace=0 / total-frames=0 / level-idc=51 / high-tier=1 / uhd-bd=0 / ref=5 / allow-non-conformance / no-repeat-headers / annexb / no-aud / no-hrd / info / hash=0 / no-temporal-layers / open-gop / min-keyint=23 / keyint=250 / gop-lookahead=0 / bframes=8 / b-adapt=2 / b-pyramid / bframe-bias=0 / rc-lookahead=40 / lookahead-slices=5 / scenecut=40 / radl=0 / no-intra-refresh / ctu=64 / min-cu-size=8 / no-rect / no-amp / max-tu-size=32 / tu-inter-depth=1 / tu-intra-depth=1 / limit-tu=0 / rdoq-level=1 / dynamic-rd=0.00 / no-ssim-rd / signhide / no-tskip / nr-intra=0 / nr-inter=0 / no-constrained-intra / no-strong-intra-smoothing / max-merge=2 / limit-refs=3 / no-limit-modes / me=3 / subme=7 / merange=57 / temporal-mvp / weightp / weightb / no-analyze-src-pics / deblock=-2:-2 / no-sao / no-sao-non-deblock / rd=3 / no-early-skip / rskip / no-fast-intra / no-tskip-fast / no-cu-lossless / no-b-intra / no-splitrd-skip / rdpenalty=0 / psy-rd=2.00 / psy-rdoq=0.00 / no-rd-refine / no-lossless / cbqpoffs=0 / crqpoffs=0 / rc=abr / bitrate=5000 / qcomp=0.65 / qpstep=1 / stats-write=0 / stats-read=0 / vbv-maxrate=50000 / vbv-bufsize=50000 / vbv-init=0.9 / ipratio=1.40 / pbratio=1.30 / aq-mode=1 / aq-strength=1.00 / cutree / zone-count=0 / no-strict-cbr / qg-size=32 / no-rc-grain / qpmax=69 / qpmin=0 / no-const-vbv / sar=1 / overscan=0 / videoformat=5 / range=0 / colorprim=1 / transfer=1 / colormatrix=1 / chromaloc=0 / display-window=0 / max-cll=0,0 / min-luma=0 / max-luma=1023 / log2-max-poc-lsb=8 / vui-timing-info / vui-hrd-info / slices=1 / no-opt-qp-pps / no-opt-ref-list-length-pps / no-multi-pass-opt-rps / scenecut-bias=0.05 / no-opt-cu-delta-qp / no-aq-motion / no-hdr / no-hdr-opt / no-dhdr10-opt / no-idr-recovery-sei / analysis-reuse-level=5 / scale-factor=0 / refine-intra=0 / refine-inter=0 / refine-mv=0 / no-limit-sao / ctu-info=0 / no-lowpass-dct / refine-mv-type=0 / copy-pic=1 / max-ausize-factor=1.0 / no-dynamic-refine / no-single-sei
Default                                  : Yes
Forced                                   : No
Color range                              : Limited
Color primaries                          : BT.709
Transfer characteristics                 : BT.709
Matrix coefficients                      : BT.709

Audio #1
ID                                       : 2
Format                                   : AC-3
Format/Info                              : Audio Coding 3
Commercial name                          : Dolby Digital
Codec ID                                 : A_AC3
Duration                                 : 35 min 43 s
Bit rate mode                            : Constant
Bit rate                                 : 384 kb/s
Channel(s)                               : 6 channels
Channel layout                           : L R C LFE Ls Rs
Sampling rate                            : 48.0 kHz
Frame rate                               : 31.250 FPS (1536 SPF)
Bit depth                                : 16 bits
Compression mode                         : Lossy
Stream size                              : 98.1 MiB (6%)
Title                                    : БЗ - DniproFilm
Language                                 : Ukrainian
Service kind                             : Complete Main
Default                                  : Yes
Forced                                   : Yes

Audio #2
ID                                       : 3
Format                                   : E-AC-3
Format/Info                              : Enhanced AC-3
Commercial name                          : Dolby Digital Plus
Codec ID                                 : A_EAC3
Duration                                 : 35 min 43 s
Bit rate mode                            : Constant
Bit rate                                 : 640 kb/s
Channel(s)                               : 6 channels
Channel layout                           : L R C LFE Ls Rs
Sampling rate                            : 48.0 kHz
Frame rate                               : 31.250 FPS (1536 SPF)
Bit depth                                : 32 bits
Compression mode                         : Lossy
Stream size                              : 164 MiB (11%)
Title                                    : Original
Language                                 : English
Service kind                             : Complete Main
Default                                  : Yes
Forced                                   : No

Text
ID                                       : 4
Format                                   : UTF-8
Codec ID                                 : S_TEXT/UTF8
Codec ID/Info                            : UTF-8 Plain Text
Title                                    : SDH
Language                                 : English
Default                                  : Yes
Forced                                   : No
Світлини





Джерело: &
Особиста оцінка: 0 - не дивився


Авторський реліз (завантажувати можна без реєстрації)
 Трекер:    Зареєстрований   

Завантажити / скачати серіал українською



відео для новачків



 Зареєстрований:   2019-02-16 18:26
 Розмір:   3.99 GB 
 Оцінка серіалу:   9/10 (Голосів: 1)
   
-Star-Lord- 
VIP


З нами з: 09.08.18
Востаннє: 17.02.19
Повідомлень: 607

2019-02-16 18:27  
Додано 3 серію

Ваш часовий пояс: GMT + 2 Години

Нова тема   Відповісти