Поспішай кохати (Пам'ятна прогулянка, Пообіцяй, що не закохаєшся) / A Walk to Remember (2002) 1080p 3xUkr/Eng | Sub Ukr/Eng | Open Matte

Нові коментарі

Нова тема   Відповісти
Автор Повідомлення
Anonymous 







2019-02-10 16:27  
Поспішай кохати / Пам'ятна прогулянка / Пообіцяй, що не закохаєшся... / A Walk to Remember (2002) 1080p 3xUkr/Eng | Sub Ukr/Eng | Open Matte

Поспішай кохати (Пам'ятна прогулянка, Пообіцяй, що не закохаєшся) / A Walk to Remember (2002) 1080p 3xUkr/Eng | Sub Ukr/Eng | Open Matte

Жанр: драма, романтичний
Країна: США



Кінокомпанія: Warner Bros., Pandora Cinema, DiNovi Pictures
Режисер: Адам Шенкман / Adam Shankman
Актори: Шейн Вест / Shane West, Менді Мур / Mandy Moore, Пітер Койот / Peter Coyote, Деріл Ганна / Daryl Hannah, Лорен Джерман / Lauren German, Клейн Кроуфорд / Clayne Crawford, Аль Томпсон / Al Thompson, Паз Де Ла Гуерта / Paz de la Huerta, Джонатан Паркс Джордан / Jonathan Parks Jordan, Метт Лутс / Matt Lutz та інші

Сюжет:
Лендон Картер - кумир своєї школи: він незалежний, гарний. І звичайно, він не помічає непоказну Джеймі, яка думає тільки про навчання. Після чергової безглуздої витівки Картера змушують займатися з учнями з проблемами в навчанні та грати у шкільному спектаклі. Тут вже йому не обійтися без допомоги скромної відмінниці. Джеймі погоджується допомогти Лендону, але тільки якщо він пообіцяє, що не буде закохуватися в неї. Самовпевнений хлопець охоче дає клятву, але незабаром він переконається, що стримати її буде дуже непросто...


Тривалість: 01:42:06
Якість: 1080p [Amazon, Open Matte] - порівняння з блуреєм
Відео:
кодек:
розмір кадру: 1920x1080
бітрейт: 12,7 Мб/с

Аудіо # 1:
мова: українська
переклад: багатоголосий закадровий
кодек: 2.0
бітрейт: 192 кб/с

Аудіо # 2:
мова: українська
переклад: багатоголосий закадровий | Так Треба Продакшн на замовлення Інтер
кодек: 2.0
бітрейт: 192 кб/с

Аудіо # 3:
мова: українська
переклад: двоголосий закадровий | Hurtom
кодек: 5.1
бітрейт: 384 кб/с
Інформація про озвучення

Переклад: MetalFreak, Travneva, DiGen, Alinea, lonleybreeze, w2958l, Mirqn, ta4to
Редагування тексту: w2958l (Віктор)
Ролі озвучували: Mister rock (Олексій Петренко), halva (Марина Халвичка)
Монтаж: Vitall_Digitall
Організація роботи: Mirqn (Мирон Товстюк)
Аудіо # 3:
мова: англійська
переклад: оригінал
кодек: 5.1
бітрейт: 1510 кб/с

Субтитри # 1 [Hurtom]
мова: українська
тип: програмні (м'які)
формат: *.srt
переклад: MetalFreak, Travneva, DiGen, Alinea, lonleybreeze, w2958l (Віктор), Mirqn, ta4to
редагування: w2958l (Віктор)

Субтитри #2
мова: англійська
тип: програмні (м'які)
формат: *.srt
Info
Код:

Complete name               : A Walk to Remember [Open Matte] (2002) [3xUkr,Eng sub.Ukr,Eng] 1080p [Hurtom].
Format                      :
Format version              : Version 4
File size                   : 10.6 GiB
Duration                    : 1 h 42 min
Overall bit rate mode       : Variable
Overall bit rate            : 14.9 Mb/s
Movie name                  : Поспішай кохати / Пам'ятна прогулянка / Пообіцяй, що не закохаєшся / A Walk to Remember [Open Matte] (2002) [3xUkr,Eng sub.Ukr,Eng] 1080p [Hurtom]
Encoded date                : UTC 2019-02-10 18:37:55
Writing application         : v31.0.0 ('Dolores In A Shoestand') 64-bit
Writing library             : libebml v1.3.6 + v1.4.9
Cover                       : Yes
Attachments                 : cover.jpg

Video
ID                          : 1
Format                      : AVC
Format/Info                 : Advanced Video Codec
Format profile              : [email protected]
Format settings             : CABAC / 4 Ref Frames
Format settings, CABAC      : Yes
Format settings, ReFrames   : 4 frames
Codec ID                    : V_MPEG4/ISO/AVC
Duration                    : 1 h 42 min
Bit rate mode               : Variable
Bit rate                    : 12.7 Mb/s
Maximum bit rate            : 15.0 Mb/s
Width                       : 1 920 pixels
Height                      : 1 080 pixels
Display aspect ratio        : 16:9
Frame rate mode             : Constant
Frame rate                  : 23.976 (24000/1001) FPS
Color space                 : YUV
Chroma subsampling          : 4:2:0
Bit depth                   : 8 bits
Scan type                   : Progressive
Bits/(Pixel*Frame)          : 0.254
Stream size                 : 9.02 GiB (85%)
Title                       : Поспішай кохати / Пам'ятна прогулянка / Пообіцяй, що не закохаєшся / A Walk to Remember (2002) 1080p 3xUkr/Eng [AMZN, Open Matte]
Writing library             : core 148 r2623 d5b2374
Encoding settings           : cabac=1 / ref=4 / deblock=1:-1:-1 / analyse=0x3:0x133 / me=umh / subme=9 / psy=1 / psy_rd=1.00:0.15 / mixed_ref=1 / me_range=24 / chroma_me=1 / trellis=2 / 8x8dct=1 / cqm=0 / deadzone=21,11 / fast_pskip=1 / chroma_qp_offset=-3 / threads=34 / lookahead_threads=5 / sliced_threads=0 / nr=150 / decimate=1 / interlaced=0 / bluray_compat=0 / constrained_intra=0 / bframes=8 / b_pyramid=2 / b_adapt=2 / b_bias=0 / direct=3 / weightb=1 / open_gop=0 / weightp=2 / keyint=120 / keyint_min=61 / scenecut=0 / intra_refresh=0 / rc_lookahead=120 / rc=crf / mbtree=1 / crf=18.0 / qcomp=0.60 / qpmin=0 / qpmax=69 / qpstep=4 / vbv_maxrate=15000 / vbv_bufsize=31250 / crf_max=0.0 / nal_hrd=vbr / filler=0 / ip_ratio=1.40 / aq=3:1.00
Language                    : English
Default                     : Yes
Forced                      : No
Color range                 : Limited
Color primaries             : BT.709
Transfer characteristics    : BT.709
Matrix coefficients         : BT.709

Audio #1
ID                          : 2
Format                      : AC-3
Format/Info                 : Audio Coding 3
Commercial name             : Dolby Digital
Codec ID                    : A_AC3
Duration                    : 1 h 42 min
Bit rate mode               : Constant
Bit rate                    : 192 kb/s
Channel(s)                  : 2 channels
Channel layout              : L R
Sampling rate               : 48.0 kHz
Frame rate                  : 31.250 FPS (1536 SPF)
Bit depth                   : 16 bits
Compression mode            : Lossy
Stream size                 : 140 MiB (1%)
Title                       : MVO [TET] 2.0 192 Kbps
Language                    : Ukrainian
Service kind                : Complete Main
Default                     : Yes
Forced                      : Yes

Audio #2
ID                          : 3
Format                      : AC-3
Format/Info                 : Audio Coding 3
Commercial name             : Dolby Digital
Codec ID                    : A_AC3
Duration                    : 1 h 42 min
Bit rate mode               : Constant
Bit rate                    : 192 kb/s
Channel(s)                  : 2 channels
Channel layout              : L R
Sampling rate               : 48.0 kHz
Frame rate                  : 31.250 FPS (1536 SPF)
Bit depth                   : 16 bits
Compression mode            : Lossy
Stream size                 : 140 MiB (1%)
Title                       : MVO [TTP, K1], 2.0 192 Kbps
Language                    : Ukrainian
Service kind                : Complete Main
Default                     : No
Forced                      : No

Audio #3
ID                          : 4
Format                      : AC-3
Format/Info                 : Audio Coding 3
Commercial name             : Dolby Digital
Codec ID                    : A_AC3
Duration                    : 1 h 42 min
Bit rate mode               : Constant
Bit rate                    : 384 kb/s
Channel(s)                  : 6 channels
Channel layout              : L R C LFE Ls Rs
Sampling rate               : 48.0 kHz
Frame rate                  : 31.250 FPS (1536 SPF)
Bit depth                   : 16 bits
Compression mode            : Lossy
Stream size                 : 280 MiB (3%)
Title                       : DVO [Hurtom], 5.1 384 Kbps
Language                    : Ukrainian
Service kind                : Complete Main
Default                     : No
Forced                      : No

Audio #4
ID                          : 5
Format                      :
Format/Info                 : Digital Theater Systems
Codec ID                    : A_DTS
Duration                    : 1 h 42 min
Bit rate mode               : Constant
Bit rate                    : 1 509 kb/s
Channel(s)                  : 6 channels
Channel layout              : C L R Ls Rs LFE
Sampling rate               : 48.0 kHz
Frame rate                  : 93.750 FPS (512 SPF)
Bit depth                   : 24 bits
Compression mode            : Lossy
Stream size                 : 1.08 GiB (10%)
Title                       : Original, 5.1 1509 Kbps
Language                    : English
Default                     : No
Forced                      : No

Text #1
ID                          : 6
Format                      : UTF-8
Codec ID                    : S_TEXT/UTF8
Codec ID/Info               : UTF-8 Plain Text
Duration                    : 1 h 37 min
Bit rate                    : 64 b/s
Count of elements           : 836
Stream size                 : 45.8 KiB (0%)
Title                       : Ukr full [Hurtom]
Language                    : Ukrainian
Default                     : No
Forced                      : No

Text #2
ID                          : 7
Format                      : UTF-8
Codec ID                    : S_TEXT/UTF8
Codec ID/Info               : UTF-8 Plain Text
Duration                    : 1 h 37 min
Bit rate                    : 37 b/s
Count of elements           : 816
Stream size                 : 26.9 KiB (0%)
Title                       : Eng full
Language                    : English
Default                     : No
Forced                      : No
Скріншоти
Джерело:
Запис з ТЕТ - Bohdan237 (DVB-T2, 08.02.2019, 18 кГц), синхронізація - igor911; доріжка К1 - Bilko;


Авторський реліз (завантажувати можна без реєстрації)
 Трекер:    Зареєстрований   

Завантажити / скачати фільм українською



відео для новачків



 Зареєстрований:   2019-02-10 22:02
 Розмір:   10.65 GB 
 Оцінка фільму:   9.9/10 (Голосів: 10)
   
bot 
робот


З нами з: 30.09.07
Востаннє: 26.05.05
Повідомлень: 21618

2019-02-10 22:02  
Тему перенесено з Анонси релізів до форуму Фільми в HD


igor911

Anonymous 







2019-02-10 22:16  
Крім доданої багатоголоски з ТЕТ, на відміну від попереднього релізу тут точніше синхронізовані інші дві укр.доріжки (там було +- 200 мс) та субтитри (був розсинхрон 1,9 с).
AI_Avenger 
Новенький


З нами з: 31.07.13
Востаннє: 15.07.19
Повідомлень: 17

2019-02-13 20:44  
Душевний фільм.
Ваш часовий пояс: GMT + 2 Години

Нова тема   Відповісти