Полярний / Polar (2019) 1080p Ukr/Eng | Sub Eng

Нові коментарі

Нова тема   Відповісти
Автор Повідомлення
staf777 
Попереджень: 1
Попереджень: 1 


З нами з: 16.11.16
Востаннє: 17.02.19
Повідомлень: 2148

2019-02-10 15:01  
Полярний / Polar (2019) 1080p Ukr/Eng | Sub Eng

Полярний / Polar (2019) 1080p Ukr/Eng | Sub Eng


Жанр: Бойовик, Кримінал
Країна: США



Кінокомпанія: Constantin Film, Dark Horse Entertainment
Режисер: Йонас Акерлунд
Актори: Мадс Міккельсен, Ванесса Енн Хадженс, Кетрін Уінник, Рубі О. Фі, Джонні Ноксвілл, Метт Лукас, Сіма Фішер, Роберт Мейллет, Фей Рен, Інга Кадранел та інші.

Сюжет:
Головний герой – в минулому один з найнебезпечніших найманих вбивць в світі Дункан Візлі, відомий в кругах кілерів як «Чорний Кайзер». Роки беруть своє і Дункан відчуває, що прийшов час закінчувати з небезпечною роботою. Але в цей час його роботодавець, у якого зібралася чимала сума гонорарів Дункана та інших кілерів, вирішує позбутися від усіх своїх найманців, щоб привласнити їхні гроші собі. І все б нічого, але він вбиває друга Чорного Кайзера, а такого Дункан не пробачає…


Тривалість: 01:58:19
Якість: 1080p
Відео:
кодек:
розмір кадру: 1920x960
бітрейт: 15200 кб/с

Аудіо # 1:
мова: українська
переклад: багатоголосий закадровий | DniproFilm
кодек: 5.1
бітрейт: 384 кб/с

Аудіо # 2:
мова: англійська
переклад: оригінал
кодек: E- 5.1
бітрейт: 448 кб/с

Субтитри # 1-3:
мова: англійська
тип: програмні (м'які)
формат: *.srt
Info
General
Unique ID : 217638010274644732022774161318177410467 (0xA3BB8E5CBB6AC2A337ABBE72C8E80DA3)
Complete name : S:\» HD українською » Фільми в HD\Бойовик\Polar (2019) 1080p [UKR][ENG][Hurtom].
Format :
Format version : Version 4
File size : 13.3 GiB
Duration : 1 h 58 min
Overall bit rate : 16.1 Mb/s
Movie name : Polar (2019) 1080p [UKR][ENG][Hurtom]
Encoded date : UTC 2019-02-10 13:57:54
Writing application : v30.1.0 ('Forever And More') 64-bit
Writing library : libebml v1.3.6 + v1.4.9
Cover : Yes
Attachments : cover.jpg

Video
ID : 1
Format : AVC
Format/Info : Advanced Video Codec
Format profile : [email protected]
Format settings : CABAC / 4 Ref Frames
Format settings, CABAC : Yes
Format settings, ReFrames : 4 frames
Codec ID : V_MPEG4/ISO/AVC
Duration : 1 h 58 min
Bit rate : 15.2 Mb/s
Width : 1 920 pixels
Height : 960 pixels
Display aspect ratio : 2.000
Frame rate mode : Constant
Frame rate : 23.976 (24000/1001) FPS
Color space : YUV
Chroma subsampling : 4:2:0
Bit depth : 8 bits
Scan type : Progressive
Bits/(Pixel*Frame) : 0.344
Stream size : 12.6 GiB (95%)
Writing library : core 157 r2935+3 (master: 545de2f / tmod: 0f48dd4) [X86_64]
Encoding settings : cabac=1 / ref=4 / deblock=1:-3:-3 / analyse=0x3:0x133 / me=umh / subme=11 / psy=1 / psy_rd=1.05:0.15 / mixed_ref=1 / me_range=48 / chroma_me=1 / trellis=2 / 8x8dct=1 / cqm=0 / deadzone=6,6 / fast_pskip=0 / chroma_qp_offset=-3 / threads=30 / lookahead_threads=7 / sliced_threads=0 / nr=0 / decimate=0 / interlaced=0 / bluray_compat=0 / constrained_intra=0 / bframes=10 / b_pyramid=2 / b_adapt=2 / b_bias=0 / direct=3 / weightb=1 / open_gop=0 / weightp=2 / keyint=250 / keyint_min=23 / scenecut=40 / intra_refresh=0 / rc_lookahead=60 / rc=crf / mbtree=0 / crf=17.0 / qcomp=0.70 / qpmin=0 / qpmax=69 / qpstep=4 / vbv_maxrate=62500 / vbv_bufsize=78125 / crf_max=0.0 / nal_hrd=none / filler=0 / ip_ratio=1.25 / pb_ratio=1.20 / aq=3:0.70
Language : English
Default : Yes
Forced : No

Audio #1
ID : 2
Format : AC-3
Format/Info : Audio Coding 3
Commercial name : Dolby Digital
Codec ID : A_AC3
Duration : 1 h 58 min
Bit rate mode : Constant
Bit rate : 384 kb/s
Channel(s) : 6 channels
Channel layout : L R C LFE Ls Rs
Sampling rate : 48.0 kHz
Frame rate : 31.250 FPS (1536 SPF)
Bit depth : 16 bits
Compression mode : Lossy
Stream size : 325 MiB (2%)
Title : DniproFilm 
Language : Ukrainian
Service kind : Complete Main
Default : Yes
Forced : Yes

Audio #2
ID : 3
Format : E-AC-3 JOC
Format/Info : Enhanced AC-3 with Joint Object Coding
Commercial name : Dolby Digital Plus with Dolby Atmos
Codec ID : A_EAC3
Duration : 1 h 58 min
Bit rate mode : Constant
Bit rate : 448 kb/s
Channel(s) : 6 channels
Channel layout : L R C LFE Ls Rs
Sampling rate : 48.0 kHz
Frame rate : 31.250 FPS (1536 SPF)
Compression mode : Lossy
Stream size : 379 MiB (3%)
Language : English
Service kind : Complete Main
Default : No
Forced : No
Complexity index : 16
Number of dynamic objects : 15
Bed channel count : 1 channel
Bed channel configuration : LFE

Text #1
ID : 4
Format : UTF-8
Codec ID : S_TEXT/UTF8
Codec ID/Info : UTF-8 Plain Text
Duration : 12 min 24 s
Bit rate : 13 b/s
Count of elements : 57
Stream size : 1.26 KiB (0%)
Title : English (Forced)
Language : English
Default : No
Forced : No

Text #2
ID : 5
Format : UTF-8
Codec ID : S_TEXT/UTF8
Codec ID/Info : UTF-8 Plain Text
Duration : 1 h 46 min
Bit rate : 39 b/s
Count of elements : 1154
Stream size : 30.7 KiB (0%)
Title : English
Language : English
Default : No
Forced : No

Text #3
ID : 6
Format : UTF-8
Codec ID : S_TEXT/UTF8
Codec ID/Info : UTF-8 Plain Text
Duration : 1 h 54 min
Bit rate : 52 b/s
Count of elements : 1683
Stream size : 43.9 KiB (0%)
Title : English (SDH)
Language : English
Default : No
Forced : No




Дякую пану Anоnymous за надану доріжку
Джерело: &
Особиста оцінка: 0 - не дивився


Авторський реліз (завантажувати можна без реєстрації)
 Трекер:    Зареєстрований   

Завантажити / скачати фільм українською



відео для новачків



 Зареєстрований:   2019-02-10 16:19
 Розмір:   13.27 GB 
 Оцінка фільму:   8.2/10 (Голосів: 12)
   
Інші релізи
   Полярний / Polar (2019) 720p Ukr/Eng | Sub Eng Anоnymous  86 / 1   5.04 GB   2019-02-10 15:00 
   Полярний / Polar (2019) AVC Ukr/Eng | Sub Eng/Multi ssTAss  287 / 2   1.59 GB   2019-02-05 20:19 
bot 
робот


З нами з: 30.09.07
Востаннє: 26.05.05
Повідомлень: 20706

2019-02-10 15:02  
Тему перенесено з Фільми в HD до форуму Анонси релізів


staf777

bot 
робот


З нами з: 30.09.07
Востаннє: 26.05.05
Повідомлень: 20706

2019-02-10 16:19  
Тему перенесено з Анонси релізів до форуму Фільми в HD


staf777

Trololo2017 
Новенький


З нами з: 16.12.17
Востаннє: 17.02.19
Повідомлень: 3

2019-02-10 23:46  
Дякую! Шикарне кіно!
Ваш часовий пояс: GMT + 2 Години

Нова тема   Відповісти