Сім душ (Сім життів) / Seven Pounds (2008) 1080p 2xUkr/Eng | Sub Eng

Нові коментарі

Нова тема   Відповісти
Автор Повідомлення
staf777 
Відео Гуртом - підтримка та поширення
Відео Гуртом - підтримка та поширення


З нами з: 16.11.16
Востаннє: 15.12.19
Повідомлень: 3071

2019-02-10 13:52  
Сім душ (Сім життів) / Seven Pounds (2008) 1080p 2xUkr/Eng | Sub Eng

Сім душ (Сім життів) / Seven Pounds (2008) 1080p 2xUkr/Eng | Sub Eng


Жанр: драма
Країна: США



Кінокомпанія: Columbia Pictures, Relativity Media, Overbrook Entertainment
Режисер: Ґабріеле Муччіно / Gabriele Muccino
Актори: Вілл Сміт / Will Smith, Розаріо Довсон / Rosario Dawson, Вуді Гарельсон / Woody Harrelson, Майкл Ілі / Michael Ealy, Беррі Пеппер / Barry Pepper, Елпідія Каррілло / Elpidia Carrillo, Робін Лі / Robinne Lee та інші.

Сюжет:
Намагаючись виправити помилки минулого, Бен вирішує допомагати сімом зовсім незнайомим людям. Але все дуже ускладнюється, коли він зустрічає смертельно хвору Емілі й закохується в неї...


Тривалість: 02:03:05
Якість: 1080p
Відео:
кодек:
розмір кадру: 1920x800
бітрейт: 7748 кб/с

Аудіо # 1:
мова: українська
переклад: професійний дубльований
кодек: 5.1
бітрейт: 448 кб/с

Аудіо # 2: ,
мова: українська
переклад: багатоголосий закадровий
кодек: 2.0
бітрейт: 192 кб/с

Аудіо # 3:
мова: англійська
переклад: оригінал
кодек: 5.1
бітрейт: 640 кб/

Субтитри:
мова: англійська
тип: програмні (м'які)
формат: *.srt
Info
General
Unique ID : 308260394824705705323553355964423261142 (0xE7E8CAE1AEEA3A3A718D1B494896CBD6)
Complete name : S:\» HD українською » Фільми в HD\Драма\Seven Pounds (2008) 1080p [2xUkr][Eng][Hurtom].
Format :
Format version : Version 4
File size : 7.76 GiB
Duration : 2 h 3 min
Overall bit rate : 9 026 kb/s
Movie name : Seven Pounds (2008) 1080p [2xUkr][Eng][Hurtom]
Encoded date : UTC 2019-02-11 09:51:09
Writing application : v30.1.0 ('Forever And More') 64-bit
Writing library : libebml v1.3.6 + v1.4.9
Cover : Yes
Attachments : cover.jpg

Video
ID : 1
Format : AVC
Format/Info : Advanced Video Codec
Format profile : [email protected]
Format settings : CABAC / 5 Ref Frames
Format settings, CABAC : Yes
Format settings, ReFrames : 5 frames
Codec ID : V_MPEG4/ISO/AVC
Duration : 2 h 3 min
Bit rate : 7 748 kb/s
Width : 1 920 pixels
Height : 800 pixels
Display aspect ratio : 2.40:1
Frame rate mode : Constant
Frame rate : 23.976 (24000/1001) FPS
Color space : YUV
Chroma subsampling : 4:2:0
Bit depth : 8 bits
Scan type : Progressive
Bits/(Pixel*Frame) : 0.210
Stream size : 6.66 GiB (86%)
Title : Rip by Boriy
Writing library : core 140 r2377 1ca7bb9
Encoding settings : cabac=1 / ref=5 / deblock=1:-3:-3 / analyse=0x3:0x113 / me=umh / subme=11 / psy=1 / psy_rd=1.00:0.00 / mixed_ref=1 / me_range=32 / chroma_me=1 / trellis=2 / 8x8dct=1 / cqm=0 / deadzone=21,11 / fast_pskip=0 / chroma_qp_offset=-2 / threads=12 / lookahead_threads=1 / sliced_threads=0 / nr=0 / decimate=0 / interlaced=0 / bluray_compat=0 / constrained_intra=0 / bframes=6 / b_pyramid=2 / b_adapt=2 / b_bias=0 / direct=3 / weightb=1 / open_gop=0 / weightp=2 / keyint=240 / keyint_min=23 / scenecut=40 / intra_refresh=0 / rc=2pass / mbtree=0 / bitrate=7748 / ratetol=1.0 / qcomp=0.60 / qpmin=0 / qpmax=69 / qpstep=4 / cplxblur=20.0 / qblur=0.5 / ip_ratio=1.40 / pb_ratio=1.30 / aq=1:0.80
Language : English
Default : Yes
Forced : No

Audio #1
ID : 2
Format : AC-3
Format/Info : Audio Coding 3
Commercial name : Dolby Digital
Codec ID : A_AC3
Duration : 2 h 3 min
Bit rate mode : Constant
Bit rate : 448 kb/s
Channel(s) : 6 channels
Channel layout : L R C LFE Ls Rs
Sampling rate : 48.0 kHz
Frame rate : 31.250 FPS (1536 SPF)
Bit depth : 16 bits
Compression mode : Lossy
Stream size : 394 MiB (5%)
Title : Dub [Blu-Ray], 5.1 448 kbps
Language : Ukrainian
Service kind : Complete Main
Default : Yes
Forced : Yes

Audio #2
ID : 3
Format : AC-3
Format/Info : Audio Coding 3
Commercial name : Dolby Digital
Codec ID : A_AC3
Duration : 2 h 3 min
Bit rate mode : Constant
Bit rate : 192 kb/s
Channel(s) : 2 channels
Channel layout : L R
Sampling rate : 48.0 kHz
Frame rate : 31.250 FPS (1536 SPF)
Bit depth : 16 bits
Compression mode : Lossy
Stream size : 169 MiB (2%)
Title : MVO [Novy], 2.0 192 Kbps
Language : Ukrainian
Service kind : Complete Main
Default : No
Forced : No

Audio #3
ID : 4
Format : AC-3
Format/Info : Audio Coding 3
Commercial name : Dolby Digital
Codec ID : A_AC3
Duration : 2 h 3 min
Bit rate mode : Constant
Bit rate : 640 kb/s
Channel(s) : 6 channels
Channel layout : L R C LFE Ls Rs
Sampling rate : 48.0 kHz
Frame rate : 31.250 FPS (1536 SPF)
Bit depth : 16 bits
Compression mode : Lossy
Stream size : 563 MiB (7%)
Language : English
Service kind : Complete Main
Default : No
Forced : No

Text
ID : 5
Format : UTF-8
Codec ID : S_TEXT/UTF8
Codec ID/Info : UTF-8 Plain Text
Duration : 1 h 55 min
Bit rate : 37 b/s
Count of elements : 1049
Stream size : 31.7 KiB (0%)
Language : English
Default : No
Forced : No

Menu
00:00:00.000 : :Chapter 1
00:08:13.743 : :Chapter 2
00:16:25.859 : :Chapter 3
00:20:11.335 : :Chapter 4
00:28:43.346 : :Chapter 5
00:33:11.990 : :Chapter 6
00:37:54.480 : :Chapter 7
00:43:40.242 : :Chapter 8
00:51:21.411 : :Chapter 9
00:57:25.316 : :Chapter 10
01:04:44.005 : :Chapter 11
01:12:50.449 : :Chapter 12
01:20:27.364 : :Chapter 13
01:27:42.006 : :Chapter 14
01:37:24.839 : :Chapter 15
01:45:52.262 : :Chapter 16





Над доріжкою працювали: Sando7, MAKAPOHHIK, patriot2305
Джерело: &
Особиста оцінка: 10 - без зайвих вагань рекомендую всім!


 Трекер:    Зареєстрований   

Завантажити / скачати фільм українською



відео для новачків



 Зареєстрований:   2019-02-11 12:27
 Розмір:   7.76 GB 
 Оцінка фільму:   9.4/10 (Голосів: 15)
   
Інші релізи
   Сім душ (Сім життів) / Seven Pounds (2008) AVC 2xUkr/Eng | Sub Eng Sando7  2 / 0   2.98 GB   2019-02-10 11:28 
   Сім душ (Сім життів) / Seven Pounds (2008) 2xUkr patriot2305  6 / 0   2.18 GB   2015-01-25 13:59 
   Сім душ / Seven Pounds (2008) 720p-mini Drool  0 / 0   2.29 GB   2012-06-25 12:15 
   Сім душ / Seven Pounds (2008) 720p Ukr/Eng | Sub Eng braveboy  3 / 0   7.09 GB   2012-02-27 07:43 
bot 
робот


З нами з: 30.09.07
Востаннє: 26.05.05
Повідомлень: 22655

2019-02-10 17:36  
Тему перенесено з Анонси релізів до форуму Фільми в HD


staf777

staf777 
Відео Гуртом - підтримка та поширення
Відео Гуртом - підтримка та поширення


З нами з: 16.11.16
Востаннє: 15.12.19
Повідомлень: 3071

2019-02-11 12:29  
Замінив на краще відео
Ваш часовий пояс: GMT + 2 Години

Нова тема   Відповісти