Упіймай мене, якщо зможеш / Впіймай мене, якщо зможеш / Спіймай мене, якщо зможеш / Catch Me If You Can (2002) AVC 3xUkr/Eng | Sub Eng

Нові коментарі

Нова тема   Відповісти
Автор Повідомлення
staf777 
Відео Гуртом - підтримка та поширення
Відео Гуртом - підтримка та поширення


З нами з: 16.11.16
Востаннє: 18.10.19
Повідомлень: 2986

2019-02-10 13:18  
Упіймай мене, якщо зможеш / Впіймай мене, якщо зможеш / Спіймай мене, якщо зможеш / Catch Me If You Can (2002) AVC 3xUkr/Eng | Sub Eng

Упіймай мене, якщо зможеш / Впіймай мене, якщо зможеш / Спіймай мене, якщо зможеш / Catch Me If You Can (2002) AVC 3xUkr/Eng | Sub Eng


Жанр: драма, біографічний, кримінальний
Країна: США



Кінокомпанія: DreamWorks SKG, Kemp Company, Splendid Pictures
Режисер: Стівен Спілберґ / Steven Spielberg
Актори: Леонардо ДіКапріо / Leonardo DiCaprio, Том Генкс / Tom Hanks, Крістофер Вокен / Christopher Walken, Мартін Шин / Martin Sheen, Наталі Бей / Nathalie Baye, Емі Адамс / Amy Adams, Джеймс Бролін / James Brolin, Елізабет Бенкс / Elizabeth Banks, Дженніфер Ґарнер / Jennifer Garner та інші

Сюжет:
Френк Ебеґнейл встиг попрацювати лікарем, адвокатом і пілотом на пасажирській авіалінії - і все це до досягнення повного повноліття в 21 рік.
Майстер в обмані і шахрайстві, він також володів мистецтвом підробки документів, що в остаточному підсумку принесло йому мільйони доларів, які він отримав по фальшивих чеках.
Агент ФБР Карл Генреті віддав би все, щоб схопити Френка і притягнути до відповідальності за свої діяння, але Френк завжди випереджає його на крок, змушуючи продовжувати перегони.


Тривалість: 02:20:43
Якість: AVC
Відео:
кодек:
розмір кадру: 1024x552
бітрейт: 3250 кб/с

Аудіо # 1:
мова: українська
переклад: багатоголосий закадровий
кодек: 2.0
бітрейт: 192 кб/с

Аудіо # 2:
мова: українська
переклад: багатоголосий закадровий
кодек: 2.0
бітрейт: 192 кб/с

Аудіо # 3:
мова: українська
переклад: двоголосий закадровий
кодек: 2.0
бітрейт: 192 кб/с

Аудіо # 4:
мова: англійська
переклад: оригінал
кодек: 5.1
бітрейт: 448 кб/с

Субтитри:
мова: англійська
тип: програмні (м'які)
формат: *.srt
MI
General
Unique ID : 257127931273958340929636680994821190738 (0xC17109C9F545A97EB47774DC97F33452)
Complete name : E:\Catch Me If You Can (2002) AVC [3xUkr][Eng][Hurtom].
Format :
Format version : Version 4
File size : 4.20 GiB
Duration : 2 h 20 min
Overall bit rate : 4 276 kb/s
Movie name : Catch Me If You Can (2002) AVC [3xUkr][Eng][Hurtom]
Encoded date : UTC 2019-02-10 09:48:49
Writing application : v30.1.0 ('Forever And More') 64-bit
Writing library : libebml v1.3.6 + v1.4.9
Cover : Yes
Attachments : cover.jpg

Video
ID : 1
Format : AVC
Format/Info : Advanced Video Codec
Format profile : [email protected]
Format settings : CABAC / 9 Ref Frames
Format settings, CABAC : Yes
Format settings, ReFrames : 9 frames
Codec ID : V_MPEG4/ISO/AVC
Duration : 2 h 20 min
Bit rate : 3 250 kb/s
Width : 1 024 pixels
Height : 552 pixels
Display aspect ratio : 1.85:1
Frame rate mode : Constant
Frame rate : 23.976 FPS
Color space : YUV
Chroma subsampling : 4:2:0
Bit depth : 8 bits
Scan type : Progressive
Bits/(Pixel*Frame) : 0.240
Stream size : 3.19 GiB (76%)
Writing library : core 130 r2273 b3065e6
Encoding settings : cabac=1 / ref=9 / deblock=1:-3:-3 / analyse=0x3:0x133 / me=umh / subme=11 / psy=1 / psy_rd=1.00:0.20 / mixed_ref=1 / me_range=32 / chroma_me=1 / trellis=2 / 8x8dct=1 / cqm=0 / deadzone=21,11 / fast_pskip=0 / chroma_qp_offset=-3 / threads=6 / lookahead_threads=1 / sliced_threads=0 / nr=0 / decimate=0 / interlaced=0 / bluray_compat=0 / constrained_intra=0 / bframes=7 / b_pyramid=2 / b_adapt=2 / b_bias=0 / direct=3 / weightb=1 / open_gop=0 / weightp=2 / keyint=240 / keyint_min=23 / scenecut=40 / intra_refresh=0 / rc=2pass / mbtree=0 / bitrate=3250 / ratetol=1.0 / qcomp=0.60 / qpmin=0 / qpmax=69 / qpstep=4 / cplxblur=20.0 / qblur=0.5 / ip_ratio=1.40 / pb_ratio=1.30 / aq=1:1.00
Language : English
Default : Yes
Forced : No

Audio #1
ID : 2
Format : AC-3
Format/Info : Audio Coding 3
Commercial name : Dolby Digital
Codec ID : A_AC3
Duration : 2 h 20 min
Bit rate mode : Constant
Bit rate : 192 kb/s
Channel(s) : 2 channels
Channel layout : L R
Sampling rate : 48.0 kHz
Frame rate : 31.250 FPS (1536 SPF)
Bit depth : 16 bits
Compression mode : Lossy
Stream size : 193 MiB (4%)
Title : 1+1
Language : Ukrainian
Service kind : Complete Main
Default : Yes
Forced : Yes

Audio #2
ID : 3
Format : AC-3
Format/Info : Audio Coding 3
Commercial name : Dolby Digital
Codec ID : A_AC3
Duration : 2 h 20 min
Bit rate mode : Constant
Bit rate : 192 kb/s
Channel(s) : 2 channels
Channel layout : L R
Sampling rate : 48.0 kHz
Frame rate : 31.250 FPS (1536 SPF)
Bit depth : 16 bits
Compression mode : Lossy
Stream size : 193 MiB (4%)
Title : MVO(Iнтер)
Language : Ukrainian
Service kind : Complete Main
Default : No
Forced : No

Audio #3
ID : 4
Format : AC-3
Format/Info : Audio Coding 3
Commercial name : Dolby Digital
Codec ID : A_AC3
Duration : 2 h 20 min
Bit rate mode : Constant
Bit rate : 192 kb/s
Channel(s) : 2 channels
Channel layout : L R
Sampling rate : 48.0 kHz
Frame rate : 31.250 FPS (1536 SPF)
Bit depth : 16 bits
Compression mode : Lossy
Stream size : 193 MiB (4%)
Title : DVO(Новий канал)
Language : Ukrainian
Service kind : Complete Main
Default : No
Forced : No

Audio #4
ID : 5
Format : AC-3
Format/Info : Audio Coding 3
Commercial name : Dolby Digital
Codec ID : A_AC3
Duration : 2 h 20 min
Bit rate mode : Constant
Bit rate : 448 kb/s
Channel(s) : 6 channels
Channel layout : L R C LFE Ls Rs
Sampling rate : 48.0 kHz
Frame rate : 31.250 FPS (1536 SPF)
Bit depth : 16 bits
Compression mode : Lossy
Stream size : 451 MiB (10%)
Language : English
Service kind : Complete Main
Default : No
Forced : No

Text
ID : 6
Format : UTF-8
Codec ID : S_TEXT/UTF8
Codec ID/Info : UTF-8 Plain Text
Duration : 2 h 12 min
Bit rate : 66 b/s
Count of elements : 1754
Stream size : 64.3 KiB (0%)
Language : English
Default : No
Forced : No

Menu
00:00:00.000 : :Chapter 01
00:04:43.909 : :Chapter 02
00:10:59.450 : :Chapter 03
00:18:35.281 : :Chapter 04
00:25:56.429 : :Chapter 05
00:28:58.737 : :Chapter 06
00:33:59.663 : :Chapter 07
00:38:37.065 : :Chapter 08
00:42:09.944 : :Chapter 09
00:49:06.068 : :Chapter 10
00:56:54.870 : :Chapter 11
01:03:42.527 : :Chapter 12
01:10:05.952 : :Chapter 13
01:22:26.733 : :Chapter 14
01:32:10.399 : :Chapter 15
01:38:26.067 : :Chapter 16
01:43:32.581 : :Chapter 17
01:49:50.417 : :Chapter 18
01:58:00.907 : :Chapter 19
02:04:01.476 : :Chapter 20
02:12:33.279 : :Chapter 21
02:16:00.194 : :Chapter 22



Джерело: &
Особиста оцінка: 10 - без зайвих вагань рекомендую всім!


Срібний реліз (на рейтинг впливає 50% завантаженого)
 Трекер:    Зареєстрований   

Завантажити / скачати фільм українською



відео для новачків



 Зареєстрований:   2019-02-10 13:31
 Розмір:   4.2 GB 
 Оцінка фільму:   8.3/10 (Голосів: 23)
   
Ваш часовий пояс: GMT + 2 Години

Нова тема   Відповісти