Шарада / Charade (1963) Remux 1080p Ukr/Eng | Sub Eng

Нові коментарі

Нова тема   Відповісти
Автор Повідомлення
MakRA 
Поважний учасник


З нами з: 11.11.18
Востаннє: 24.04.19
Повідомлень: 174

2019-02-10 03:08  
Шарада / Charade (1963) Remux 1080p Ukr/Eng | Sub Eng

Шарада / Charade (1963) Remux 1080p Ukr/Eng | Sub Eng


Жанр: комедія, романтичний, трилер
Країна: США



Кінокомпанія: Universal Pictures, Stanley Donen Films
Режисер: Стенлі Донен [Stanley Donen]
Актори: Кері Ґрант [Cary Grant], Одрі Гепберн [Audrey Hepburn], Волтер Меттау [Walter Matthau], Джеймс Кобурн [James Coburn], Джордж Кеннеді [George Kennedy], Домінік Мінот [Dominique Minot], Нед Ґлесс [Ned Glass], Жак Марін [Jacques Marin], Поль Боніфас [Paul Bonifas], Томас Челімскі [Thomas Chelimsky].

Сюжет:
Чарівна Реджі хоче розірвати свій шлюб, а щоб розважитися, вона вирушає трохи помандрувати. На відпочинку вона зустрічає привабливого чоловіка на ім'я Пітер Джошуа, а повернувшись, дізнається про свій новий статус вдови і про незрозуміле зникнення всіх їхніх заощаджень. До того ж на Реджі тепер тиснуть всі ті, хто хоче отримати кругленьку суму від її покійного чоловіка. Серед них виявляється і Джошуа, який представляється вже іншим ім'ям.


Тривалість: 01:53:36
Якість: Remux 1080p
Відео:
кодек:
розмір кадру: 1920 х 1080
бітрейт: 35.3 Mb/s

Аудіо # 1:
мова: українська
переклад: багатоголосий закадровий [КИЇВ TV]
кодек: 2.0
бітрейт: 192 kb/s

Аудіо # 2:
мова: англійська
переклад: оригінал
кодек: LPCM
бітрейт: 1 152 kb/s

Аудіо # 3:
мова: англійська
переклад: оригінал
кодек: 1.0
бітрейт: 256 kb/s

Аудіо # 4:
мова: англійська
переклад: оригінал | коментарі режисера Стенлі Донена та сценариста Пітера Стоуна
кодек: 1.0
бітрейт: 192 kb/s

Субтитри:
мова: англійська
тип: пререндерні
формат: *.pgs
Info
General
Unique ID : 170173578417202090446810697542343083076 (0x80063D31D699EA36E45779A9EE1C4444)
Complete name : F:\Комедії\Charade (1963) Remux 1080p UkrEng Sub Eng [Hurtom].
Format :
Format version : Version 4 / Version 2
File size : 29.4 GiB
Duration : 1 h 53 min
Overall bit rate mode : Variable
Overall bit rate : 37.1 Mb/s
Movie name : Charade (1963) Remux 1080p Ukr/Eng | Sub Eng [Hurtom]
Encoded date : UTC 2019-02-09 12:19:04
Writing application : v25.0.0 ('Prog Noir') 64-bit
Writing library : libebml v1.3.6 + v1.4.9

Video
ID : 1
Format : AVC
Format/Info : Advanced Video Codec
Format profile : [email protected]
Format settings, CABAC : Yes
Format settings, RefFrames : 4 frames
Codec ID : V_MPEG4/ISO/AVC
Duration : 1 h 53 min
Bit rate mode : Variable
Bit rate : 35.3 Mb/s
Maximum bit rate : 37.0 Mb/s
Width : 1 920 pixels
Height : 1 080 pixels
Display aspect ratio : 16:9
Frame rate mode : Constant
Frame rate : 23.976 (24000/1001) FPS
Color space : YUV
Chroma subsampling : 4:2:0
Bit depth : 8 bits
Scan type : Progressive
Bits/(Pixel*Frame) : 0.709
Stream size : 28.0 GiB (95%)
Title : Charade (1963) Remux 1080p Ukr/Eng | Sub Eng [Hurtom]
Language : Ukrainian
Default : Yes
Forced : Yes
Color range : Limited
Color primaries : BT.709
Transfer characteristics : BT.709
Matrix coefficients : BT.709

Audio #1
ID : 2
Format : AC-3
Format/Info : Audio Coding 3
Format settings, Endianness : Big
Codec ID : A_AC3
Duration : 1 h 53 min
Bit rate mode : Constant
Bit rate : 192 kb/s
Channel(s) : 2 channels
Channel positions : Front: L R
Sampling rate : 48.0 kHz
Frame rate : 31.250 FPS (1536 SPF)
Bit depth : 16 bits
Compression mode : Lossy
Stream size : 156 MiB (1%)
Title : MVO [КИЇВ TV]
Language : Ukrainian
Service kind : Complete Main
Default : Yes
Forced : Yes

Audio #2
ID : 3
Format : PCM
Codec ID : A_PCM/INT/LIT
Duration : 1 h 53 min
Bit rate mode : Constant
Bit rate : 1 152 kb/s
Sampling rate : 48.0 kHz
Frame rate : 32.000 FPS (1500 SPF)
Bit depth : 24 bits
Stream size : 936 MiB (3%)
Title : Original LPCM Audio
Language : English
Default : No
Forced : No

Audio #3
ID : 4
Format : AC-3
Format/Info : Audio Coding 3
Format settings, Endianness : Big
Codec ID : A_AC3
Duration : 1 h 53 min
Bit rate mode : Constant
Bit rate : 256 kb/s
Channel(s) : 1 channel
Channel positions : Front: C
Sampling rate : 48.0 kHz
Frame rate : 31.250 FPS (1536 SPF)
Bit depth : 16 bits
Compression mode : Lossy
Stream size : 208 MiB (1%)
Title : Original
Language : English
Service kind : Complete Main
Default : No
Forced : No

Audio #4
ID : 5
Format : AC-3
Format/Info : Audio Coding 3
Format settings, Endianness : Big
Codec ID : A_AC3
Duration : 1 h 53 min
Bit rate mode : Constant
Bit rate : 192 kb/s
Channel(s) : 1 channel
Channel positions : Front: C
Sampling rate : 48.0 kHz
Frame rate : 31.250 FPS (1536 SPF)
Bit depth : 16 bits
Compression mode : Lossy
Stream size : 156 MiB (1%)
Title : Original |commentary featuring Stanley Donen and screenwriter Peter Stone
Language : English
Service kind : Complete Main
Default : No
Forced : No

Text
ID : 6
Format : PGS
Muxing mode : zlib
Codec ID : S_HDMV/PGS
Codec ID/Info : Picture based subtitle format used on BDs/HD-DVDs
Duration : 1 h 52 min
Bit rate : 49.9 kb/s
Count of elements : 3000
Stream size : 40.3 MiB (0%)
Title : Eng
Language : English
Default : No
Forced : No
Скріншоти
Джерело: &
Подяка п. Tanat13 за запис з ТБ і п. karvai0 за зведення звуку.

Особиста оцінка: 10 - без зайвих вагань рекомендую всім!


Золотий реліз (завантажене не впливає на рейтинг)
 Трекер:    Зареєстрований   

Завантажити / скачати фільм українською



відео для новачків



 Зареєстрований:   2019-02-10 03:08
 Розмір:   29.42 GB 
 Оцінка фільму:   10/10 (Голосів: 6)
   
Інші релізи
   Шарада / Charade (1963) 720p Ukr/Eng | Sub Eng taraskill1  6 / 0   8.01 GB   2017-08-19 09:29 
   Шарада / Charade (1963) Ukr/Eng | Sub Eng karvai0  8 / 2   1.6 GB   2014-03-29 22:57 
Ваш часовий пояс: GMT + 2 Години

Нова тема   Відповісти