Лицарі неба / Les chevaliers du ciel / Sky Fighters (2005) Remux 1080p Ukr/Fre | Sub Fre

Нові коментарі

Нова тема   Відповісти
Автор Повідомлення
MakRA 
Поважний учасник


З нами з: 11.11.18
Востаннє: 20.04.19
Повідомлень: 174

2019-02-10 00:32  
Лицарі неба / Les chevaliers du ciel / Sky Fighters (2005) Remux 1080p Ukr/Fre | Sub Fre

Лицарі неба / Les chevaliers du ciel / Sky Fighters (2005) Remux 1080p Ukr/Fre | Sub Fre


Жанр: екшн, пригодницький
Країна: Франція



Кінокомпанія: Mandarin Films, Outsider Productions, Black Forest Films
Режисер: Жерар Пірес [Gérard Pirès]
Актори: Бенуа Мажимель [Benoit Magimel], Кловіс Корнійак [Clovis Cornillac], Жеральдін Пайя [Geraldine Pailhas], Філіп Торретон [Philippe Torreton], Рей Рейс [Rey Reyes], Аліса Тальоні [Alice Taglioni], Філіпп Торретон [Philippe Torreton], Пітер Хадсон [Peter Hudson], Крістоф Реймон [Christophe Reymond].

Сюжет:
Фільм описує пригоди двох досвідчених льотчиків в наші дні. Під час показових польотів на авіасалоні був викрадений найновіший винищувач з повним боєкомплектом. На його перехоплення викликають два винищувачі з прилеглої авіабази ...


Тривалість: 01:40:43
Якість: Remux 1080p
Відео:
кодек: VC-1
розмір кадру: 1920 х 1080
бітрейт: 21.0 Mb/s

Аудіо # 1:
мова: українська
переклад: багатоголосий закадровий [TBi]
кодек: 2.0
бітрейт: 192 kb/s

Аудіо # 2:
мова: французька
переклад: оригінал
кодек: -HD 5.1
бітрейт: 1 509 kb/s

Аудіо # 3:
мова: французька
переклад: оригінал
кодек: 5.1
бітрейт: 448 кб/с

Субтитри # 1:
мова: французька
тип: програмні (м'які)
формат: *.srt

Субтитри # 2:
мова: англійська
тип: програмні (м'які)
формат: *.srt
Info
General
Unique ID : 44415587278244340199802500336647835745 (0x216A21862E089DD7B2C1E6F8D9429061)
Complete name : F:\Екшн, бойовики\Les chevaliers du ciel (Sky Fighters) (2005) Remux 1080p UkrFre Sub Fre [Hurtom].
Format :
Format version : Version 4 / Version 2
File size : 16.3 GiB
Duration : 1 h 40 min
Overall bit rate : 23.1 Mb/s
Movie name : Лицарі неба / Les chevaliers du ciel / Sky Fighters (2005) Remux 1080p Ukr/Fre | Sub Fre [Hurtom]
Encoded date : UTC 2019-02-09 18:45:49
Writing application : v25.0.0 ('Prog Noir') 64-bit
Writing library : libebml v1.3.6 + v1.4.9

Video
ID : 1
Format : VC-1
Format profile : [email protected]
Codec ID : V_MS/VFW/FOURCC / WVC1
Codec ID/Hint : Microsoft
Duration : 1 h 40 min
Bit rate : 21.0 Mb/s
Width : 1 920 pixels
Height : 1 080 pixels
Display aspect ratio : 16:9
Frame rate mode : Constant
Frame rate : 23.976 (24000/1001) FPS
Color space : YUV
Chroma subsampling : 4:2:0
Bit depth : 8 bits
Scan type : Progressive
Compression mode : Lossy
Bits/(Pixel*Frame) : 0.422
Stream size : 14.8 GiB (91%)
Title : Les chevaliers du ciel / Sky Fighters (2005) Remux 1080p Ukr/Fre | Sub Fre [Hurtom]
Language : Ukrainian
Default : Yes
Forced : Yes

Audio #1
ID : 2
Format : AC-3
Format/Info : Audio Coding 3
Format settings, Endianness : Big
Codec ID : A_AC3
Duration : 1 h 40 min
Bit rate mode : Constant
Bit rate : 192 kb/s
Channel(s) : 2 channels
Channel positions : Front: L R
Sampling rate : 48.0 kHz
Frame rate : 31.250 FPS (1536 SPF)
Bit depth : 16 bits
Compression mode : Lossy
Stream size : 138 MiB (1%)
Title : MVO [TBi]
Language : Ukrainian
Service kind : Complete Main
Default : Yes
Forced : Yes

Audio #2
ID : 3
Format :
Format/Info : Digital Theater Systems
Mode : 16
Format settings, Endianness : Big
Codec ID : A_DTS
Duration : 1 h 40 min
Bit rate mode : Constant
Bit rate : 1 509 kb/s
Channel(s) : 6 channels
Channel positions : Front: L C R, Side: L R, LFE
Sampling rate : 48.0 kHz
Frame rate : 93.750 FPS (512 SPF)
Bit depth : 16 bits
Compression mode : Lossy
Stream size : 1.06 GiB (7%)
Title : Original
Language : French
Default : No
Forced : No

Audio #3
ID : 4
Format : AC-3
Format/Info : Audio Coding 3
Format settings, Endianness : Big
Codec ID : A_AC3
Duration : 1 h 40 min
Bit rate mode : Constant
Bit rate : 448 kb/s
Channel(s) : 6 channels
Channel positions : Front: L C R, Side: L R, LFE
Sampling rate : 48.0 kHz
Frame rate : 31.250 FPS (1536 SPF)
Bit depth : 16 bits
Compression mode : Lossy
Stream size : 323 MiB (2%)
Title : Original
Language : French
Service kind : Complete Main
Default : No
Forced : No

Text #1
ID : 5
Format : UTF-8
Codec ID : S_TEXT/UTF8
Codec ID/Info : UTF-8 Plain Text
Duration : 1 h 35 min
Bit rate : 50 b/s
Count of elements : 1037
Stream size : 35.2 KiB (0%)
Title : Fre
Language : French
Default : No
Forced : No

Text #2
ID : 6
Format : UTF-8
Codec ID : S_TEXT/UTF8
Codec ID/Info : UTF-8 Plain Text
Duration : 1 h 34 min
Bit rate : 43 b/s
Count of elements : 1159
Stream size : 29.9 KiB (0%)
Title : Eng
Language : English
Default : No
Forced : No
Скріншоти
Джерело: &
Особиста оцінка: 10 - без зайвих вагань рекомендую всім!


Золотий реліз (завантажене не впливає на рейтинг)
 Трекер:    Зареєстрований   

Завантажити / скачати фільм українською



відео для новачків



 Зареєстрований:   2019-02-10 00:32
 Розмір:   16.28 GB 
 Оцінка фільму:   7.8/10 (Голосів: 4)
   
Інші релізи
messer3 
Новенький


З нами з: 06.09.10
Востаннє: 18.04.19
Повідомлень: 15

2019-02-10 01:04  
фільм просто неймовірний. Повітряні зйомки та так звані повітряні бої dogfight просто зачаровують барвами та пейзажами Альп, купчастих хмар та синяви північного моря. А прекрасні винищувачі Mirage 2000 просто пестять очі своїми неймовірно граційними аеродинамічними формами. Взагалі раджу усім любителям і фанатам авіації і не тільки, фільм цікавий буде для всіх.
waldi-hurtom 
VIP


З нами з: 07.10.12
Востаннє: 20.04.19
Повідомлень: 953

2019-02-11 21:12  
Боже, яка халтура! 1 з 10. Виключно за малюночки літачків. Найгіршій фільм, що стосується авіації. Ні, мабуть таки пригадав ще гіршій - гарцювання Брюса Вілліса на завислому Харієрі. Але стриптізерка-винищучка - це шедевр!
Ваш часовий пояс: GMT + 2 Години

Нова тема   Відповісти