Богемна рапсодія / Bohemian Rhapsody (2018) Remux 1080p Ukr/Eng | Sub Ukr/Eng

Нові коментарі

Нова тема   Відповісти
Автор Повідомлення
Anonymous 







2019-02-09 18:50  
Богемна рапсодія / Bohemian Rhapsody (2018) Remux 1080p Ukr/Eng | Sub Ukr/Eng

Богемна рапсодія / Bohemian Rhapsody (2018) Remux 1080p Ukr/Eng | Sub Ukr/Eng


Жанр: біографічний, драма, музичний
Країна: Велика Британія, США





Кінокомпанія: GK Films, New Regency Pictures, Queen Films Ltd.
Режисер: Брайан Сінгер
Актори: Рамі Малек, Люсі Бойнтон, Гвілім Лі, Бен Харді, Джозеф Маццелло, Ейдан Джиллен, Аллен Ліч, Том Холландер, Майк Майєрс, Аарон МакКаскер

Сюжет:
«Богемна рапсодія» — це фільм-посвята ансамблю Queen, їхній музиці та видатному солісту Фредді Мерк'юрі, який кинув виклик стереотипам та відкинув умовності, аби стати одним з найулюбленіших артистів на планеті. Фільм простежує карколомний злет Queen завдяки культовим пісням та революційному звучанню, майже розпад групи, коли спосіб життя Мерк'юрі вийшов з-під контролю, та їхнє тріумфальне возз'єднання напередодні благодійного концерту Live Aid, де група на чолі зі смертельно хворим Мерк'юрі продемонструвала один з найвеличніших виступів в історії рок-музики.


Тривалість: 02:14:37
Якість: Remux 1080p

Відео:
кодек:
розмір кадру: 1920x1080
бітрейт: 23,2 Мб/с

Аудіо # 1:
мова: українська
переклад: професійний дубльований
кодек: 5.1
бітрейт: 448 кб/с

Аудіо # 2:
мова: англійська
переклад: оригінал
кодек: 5.1
бітрейт: 640 кб/с

Аудіо # 3:
мова: англійська
переклад: оригінал
кодек: -HD MA 7.1
бітрейт: 4763 кб/с

Джерело озвучення:


Субтитри (Forced, Full):
мова: українська
тип: програмні (м'які)
формат: *.srt

Субтитри (SDH, SDH Colored):
мова: англійська
тип: програмні (м'які)
формат: *.srt
Info
Код:
General
Complete name                            : Bohemian Rhapsody (2018) Remux [UKR.ENG] [ViDeO_Hurtom].
Format                                   :
Format version                           : Version 4
File size                                : 27.3 GiB
Duration                                 : 2 h 14 min
Overall bit rate mode                    : Variable
Overall bit rate                         : 29.1 Mb/s
Movie name                               : Bohemian Rhapsody (2018) Remux [UKR.ENG] [ViDeO_Hurtom]
Encoded date                             : UTC 2019-02-09 11:54:09
Writing application                      : v30.1.0 ('Forever And More') 64-bit
Writing library                          : libebml v1.3.6 + v1.4.9

Video
ID                                       : 1
Format                                   : AVC
Format/Info                              : Advanced Video Codec
Format profile                           : [email protected]
Format settings                          : CABAC / 2 Ref Frames
Format settings, CABAC                   : Yes
Format settings, RefFrames               : 2 frames
Codec ID                                 : V_MPEG4/ISO/AVC
Duration                                 : 2 h 14 min
Bit rate mode                            : Variable
Bit rate                                 : 23.2 Mb/s
Width                                    : 1 920 pixels
Height                                   : 1 080 pixels
Display aspect ratio                     : 16:9
Frame rate mode                          : Constant
Frame rate                               : 23.976 (24000/1001) FPS
Color space                              : YUV
Chroma subsampling                       : 4:2:0
Bit depth                                : 8 bits
Scan type                                : Progressive
Bits/(Pixel*Frame)                       : 0.467
Stream size                              : 21.8 GiB (80%)
Language                                 : English
Default                                  : Yes
Forced                                   : No

Audio #1
ID                                       : 2
Format                                   : AC-3
Format/Info                              : Audio Coding 3
Commercial name                          : Dolby Digital
Codec ID                                 : A_AC3
Duration                                 : 2 h 14 min
Bit rate mode                            : Constant
Bit rate                                 : 448 kb/s
Channel(s)                               : 6 channels
Channel layout                           : L R C LFE Ls Rs
Sampling rate                            : 48.0 kHz
Frame rate                               : 31.250 FPS (1536 SPF)
Bit depth                                : 16 bits
Compression mode                         : Lossy
Stream size                              : 431 MiB (2%)
Title                                    : , 6 ch, 448 Кбт/с
Language                                 : Ukrainian
Service kind                             : Complete Main
Default                                  : Yes
Forced                                   : No

Audio #2
ID                                       : 3
Format                                   : AC-3
Format/Info                              : Audio Coding 3
Commercial name                          : Dolby Digital
Codec ID                                 : A_AC3
Duration                                 : 2 h 14 min
Bit rate mode                            : Constant
Bit rate                                 : 640 kb/s
Channel(s)                               : 6 channels
Channel layout                           : L R C LFE Ls Rs
Sampling rate                            : 48.0 kHz
Frame rate                               : 31.250 FPS (1536 SPF)
Bit depth                                : 16 bits
Compression mode                         : Lossy
Stream size                              : 616 MiB (2%)
Title                                    : , 6 ch, 640 Кбит/с
Language                                 : English
Service kind                             : Complete Main
Default                                  : No
Forced                                   : No

Audio #3
ID                                       : 4
Format                                   : ES XLL
Format/Info                              : Digital Theater Systems
Commercial name                          : -HD Master Audio
Codec ID                                 : A_DTS
Duration                                 : 2 h 14 min
Bit rate mode                            : Variable
Bit rate                                 : 4 763 kb/s
Channel(s)                               : 8 channels
Channel layout                           : C L R Ls Rs LFE Lb Rb
Sampling rate                            : 48.0 kHz
Frame rate                               : 93.750 FPS (512 SPF)
Bit depth                                : 24 bits
Compression mode                         : Lossless
Stream size                              : 4.48 GiB (16%)
Title                                    : -HD MA, 8 ch, 4763 Кбт/с
Language                                 : English
Default                                  : No
Forced                                   : No

Text #1
ID                                       : 5
Format                                   : UTF-8
Codec ID                                 : S_TEXT/UTF8
Codec ID/Info                            : UTF-8 Plain Text
Duration                                 : 2 h 13 min
Bit rate                                 : 3 b/s
Count of elements                        : 71
Stream size                              : 3.87 KiB (0%)
Title                                    : Forced
Language                                 : Ukrainian
Default                                  : Yes
Forced                                   : No

Text #2
ID                                       : 6
Format                                   : UTF-8
Codec ID                                 : S_TEXT/UTF8
Codec ID/Info                            : UTF-8 Plain Text
Duration                                 : 2 h 13 min
Bit rate                                 : 77 b/s
Count of elements                        : 1753
Stream size                              : 75.4 KiB (0%)
Title                                    : Full
Language                                 : Ukrainian
Default                                  : No
Forced                                   : No

Text #3
ID                                       : 7
Format                                   : UTF-8
Codec ID                                 : S_TEXT/UTF8
Codec ID/Info                            : UTF-8 Plain Text
Duration                                 : 2 h 11 min
Bit rate                                 : 68 b/s
Count of elements                        : 2268
Stream size                              : 65.6 KiB (0%)
Title                                    : SDH
Language                                 : English
Default                                  : No
Forced                                   : No

Text #4
ID                                       : 8
Format                                   : UTF-8
Codec ID                                 : S_TEXT/UTF8
Codec ID/Info                            : UTF-8 Plain Text
Duration                                 : 2 h 11 min
Bit rate                                 : 92 b/s
Count of elements                        : 2269
Stream size                              : 88.9 KiB (0%)
Title                                    : SDH Colored
Language                                 : English
Default                                  : No
Forced                                   : No
Скріншоти










Джерело: &
Особиста оцінка: 0 - не дивився


Золотий реліз (завантажене не впливає на рейтинг)
 Трекер:    Зареєстрований   

Завантажити / скачати фільм українською



відео для новачків



 Зареєстрований:   2019-02-09 18:50
 Розмір:   27.32 GB 
 Оцінка фільму:   8.9/10 (Голосів: 23)
   
paokai 
Новенький


З нами з: 24.05.12
Востаннє: 12.08.19
Повідомлень: 7

2019-02-12 10:06  
Підскажіть буде в -HD Українська доріжка
-Star-Lord- 
VIP


З нами з: 09.08.18
Востаннє: 13.12.19
Повідомлень: 1355

2019-02-12 10:09  
paokai написано:
Підскажіть буде в -HD Українська доріжка

Ні. Звук взято з блюрей диску.

[email protected] 
Новенький


З нами з: 11.04.19
Востаннє: 11.04.19
Повідомлень: 1

2019-04-11 14:45  
Фільму немає
igor911 
Модератор відео


З нами з: 18.01.08
Востаннє: 13.12.19
Повідомлень: 13728

2019-04-11 15:26  
[email protected] написано:
Фільму немає

Є. Якщо незрозуміло, що робити на торент-трекері - див. https://toloka.to/t35477

Додано через 23 секунди:

п.2. Завантаження релізів

The Gunslinger 
Свій


З нами з: 08.04.12
Востаннє: 12.12.19
Повідомлень: 92

2019-09-12 21:38  
Рамі Малек класний в цьому фільмі, чого не скажеш про фільм. Середняк, не більше.
Ваш часовий пояс: GMT + 2 Години

Нова тема   Відповісти