Воно приходить уночі / It Comes at Night (2017) Remux 1080p Ukr/Eng | Sub Eng

Нові коментарі

Нова тема   Відповісти
Автор Повідомлення
staf777 
Відео Гуртом - підтримка та поширення
Відео Гуртом - підтримка та поширення


З нами з: 16.11.16
Востаннє: 17.11.19
Повідомлень: 3033

2019-02-09 18:08  
Воно приходить уночі / It Comes at Night (2017) Remux 1080p Ukr/Eng | Sub Eng

Воно приходить уночі / It Comes at Night (2017) Remux 1080p Ukr/Eng | Sub Eng


Жанр: детектив, драма, жахи
Країна: США



Кінокомпанія: Animal Kingdom, A24
Режисер: Трей Едвард Шульц
Актори: Джоел Едгертон, Крістофер Ебботт, Кармен Еджого, Райлі Кіо, Келвін Харрісон, Гріффін Роберт Фолкнер, Девід Пендлтон

Сюжет:
Цивілізацію вражає зловісна епідемія, що перетворює інфікованих на жахливих монстрів. Світ занурюється в нестерпний жах. Рятуючись від загибелі, батько ховає свою сім'ю в покинутому будинку в гущавині лісу. Одного разу на порозі будинку з'являються незнайомці. Але як врятуватися від божевілля, коли пекло всередині тебе?..


Тривалість: 01:31:37
Якість: Remux 1080p

Відео:
кодек:
розмір кадру: 1920x1080
бітрейт: 21 Mб/с

Аудіо # 1:
мова: українська
переклад: професійний дубльований
кодек: 2.0
бітрейт: 192 кб/с
примітка: відсутнє озвучення на проміжку з 00:38:45-->00:38:52 та 01:15:50-->01:15:56 на нього є форсовані субтитри

Аудіо # 2:
мова: англійська
переклад: оригінал
кодек: -HD MA 5.1
бітрейт: 3408 кб/с

Субтитри # 1: [Forced]
мова: українська
тип: програмні (м'які)
формат: *.srt

Субтитри # 2-4: (Full + SDH + SDH-Colored)
мова: англійська
тип: програмні (м'які)
формат: *.srt
Info
General
Unique ID : 226386927896150011541742181153617254471 (0xAA50894DECFF79B0507D6FD7198C9847)
Complete name : S:\» HD українською » Фільми в HD\Жахи\It Comes at Night (2017) Remux 1080p [UKR][ENG][Hurtom].
Format :
Format version : Version 4
File size : 15.7 GiB
Duration : 1 h 31 min
Overall bit rate mode : Variable
Overall bit rate : 24.6 Mb/s
Movie name : It Comes at Night (2017) Remux 1080p [UKR][ENG][Hurtom]
Encoded date : UTC 2019-02-10 07:24:09
Writing application : v30.1.0 ('Forever And More') 64-bit
Writing library : libebml v1.3.6 + v1.4.9
Cover : Yes
Attachments : cover.jpg

Video
ID : 1
Format : AVC
Format/Info : Advanced Video Codec
Format profile : [email protected]
Format settings : CABAC / 4 Ref Frames
Format settings, CABAC : Yes
Format settings, ReFrames : 4 frames
Codec ID : V_MPEG4/ISO/AVC
Duration : 1 h 31 min
Bit rate mode : Variable
Bit rate : 21.0 Mb/s
Maximum bit rate : 37.0 Mb/s
Width : 1 920 pixels
Height : 1 080 pixels
Display aspect ratio : 16:9
Frame rate mode : Constant
Frame rate : 23.976 (23976/1000) FPS
Original frame rate : 23.976 (24000/1001) FPS
Color space : YUV
Chroma subsampling : 4:2:0
Bit depth : 8 bits
Scan type : Progressive
Bits/(Pixel*Frame) : 0.422
Stream size : 13.4 GiB (85%)
Language : English
Default : Yes
Forced : No

Audio #1
ID : 2
Format : AC-3
Format/Info : Audio Coding 3
Commercial name : Dolby Digital
Codec ID : A_AC3
Duration : 1 h 31 min
Bit rate mode : Constant
Bit rate : 192 kb/s
Channel(s) : 2 channels
Channel layout : L R
Sampling rate : 48.0 kHz
Frame rate : 31.250 FPS (1536 SPF)
Bit depth : 16 bits
Compression mode : Lossy
Stream size : 126 MiB (1%)
Language : Ukrainian
Service kind : Complete Main
Default : Yes
Forced : Yes

Audio #2
ID : 3
Format : XLL
Format/Info : Digital Theater Systems
Commercial name : -HD Master Audio
Codec ID : A_DTS
Duration : 1 h 31 min
Bit rate mode : Variable
Bit rate : 3 408 kb/s
Channel(s) : 6 channels
Channel layout : C L R Ls Rs LFE
Sampling rate : 48.0 kHz
Frame rate : 93.750 FPS (512 SPF)
Bit depth : 24 bits
Compression mode : Lossless
Stream size : 2.18 GiB (14%)
Title : Original
Language : English
Default : No
Forced : No

Text #1
ID : 4
Format : UTF-8
Codec ID : S_TEXT/UTF8
Codec ID/Info : UTF-8 Plain Text
Duration : 37 min 10 s
Bit rate : 1 b/s
Count of elements : 6
Stream size : 348 Bytes (0%)
Language : Ukrainian
Default : Yes
Forced : Yes

Text #2
ID : 5
Format : UTF-8
Codec ID : S_TEXT/UTF8
Codec ID/Info : UTF-8 Plain Text
Duration : 1 h 26 min
Bit rate : 36 b/s
Count of elements : 746
Stream size : 23.3 KiB (0%)
Title : Full
Language : English
Default : No
Forced : No

Text #3
ID : 6
Format : UTF-8
Codec ID : S_TEXT/UTF8
Codec ID/Info : UTF-8 Plain Text
Duration : 1 h 27 min
Bit rate : 45 b/s
Count of elements : 1083
Stream size : 29.2 KiB (0%)
Title : SDH
Language : English
Default : No
Forced : No

Text #4
ID : 7
Format : UTF-8
Codec ID : S_TEXT/UTF8
Codec ID/Info : UTF-8 Plain Text
Duration : 1 h 27 min
Bit rate : 65 b/s
Count of elements : 1083
Stream size : 42.1 KiB (0%)
Title : SDH Colored
Language : English
Default : No
Forced : No

Menu
00:00:00.000 : en:Chapter 1
00:05:09.225 : en:Chapter 2
00:11:16.175 : en:Chapter 3
00:16:20.270 : en:Chapter 4
00:24:44.399 : en:Chapter 5
00:28:20.323 : en:Chapter 6
00:35:04.435 : en:Chapter 7
00:42:06.690 : en:Chapter 8
00:47:58.792 : en:Chapter 9
00:51:25.332 : en:Chapter 10
00:56:15.872 : en:Chapter 11
01:01:22.720 : en:Chapter 12
01:07:28.127 : en:Chapter 13
01:13:37.746 : en:Chapter 14
01:20:18.146 : en:Chapter 15
01:26:26.764 : en:Chapter 16


Підтримати купівлю інших фільмів можна тут.



Джерело: & & &
Особиста оцінка: 10 - без зайвих вагань рекомендую всім!


Золотий реліз (завантажене не впливає на рейтинг)
 Трекер:    Зареєстрований   

Завантажити / скачати фільм українською



відео для новачків



 Зареєстрований:   2019-02-10 10:00
 Розмір:   15.74 GB 
 Оцінка фільму:   7.9/10 (Голосів: 10)
   
Ваш часовий пояс: GMT + 2 Години

Нова тема   Відповісти