Погані часи у «Ель Роялі» / Bad Times at the El Royale (2018) UHD Remux 4K 2160p HDR H.265 Ukr/Eng | Sub Ukr/Eng

Нові коментарі

Нова тема   Відповісти
Автор Повідомлення
Anonymous 







2019-02-09 19:07  
Погані часи у «Ель Роялі» / Bad Times at the El Royale (2018) UHD Remux 4K 2160p HDR H.265 Ukr/Eng | Sub Ukr/Eng

Погані часи у «Ель Роялі» / Bad Times at the El Royale (2018) UHD Remux 4K 2160p HDR H.265 Ukr/Eng | Sub Ukr/Eng


Жанр: детектив, драма, кримінальний, трилер
Країна: США





Кінокомпанія: 20th Century Fox
Режисер: Дрю Ґоддард
Актори: Джефф Бріджес, Синтія Еріво, Дакота Джонсон, Джон Хемм, Кріс Гемсворт, Кайлі Спейні, Льюїс Пуллман, Нік Офферман, Ксав'є Долан, Ші Уігхем

Сюжет:
Співачка, похмурий священик, завзятий продавець пилососів і мовчазна дівчина. Що могло звести разом усіх цих абсолютно різних особистостей в одному готелі під назвою "Ель Рояль"? Цей заклад знаходиться на кордоні штатів Каліфорнія та Невада, і, при бажанні, відвідувачі можуть вибрати, у якому штаті переночувати. Зараз готель далеко не такий популярний як раніше, але часом тут бувають такі ось цікаві особистості. Особливо спекотно стає тоді, коли до "Ель Рояль" підходить лідер зловісного культу, у якого є свої цілі. Кожен із постояльців закладу має таємниці, які краще би нікому і ніколи не дізнатися, але ця ніч багато що змінить.


Тривалість: 02:21:37
Якість: 4K UltraHD Remux 2160p
Відео:
кодек: H.265 (HEVC)
розмір кадру: 3840x2160
бітрейт: ~46 Мб/с

Аудіо # 1:
мова: українська
переклад: професійний дубльований
кодек: 5.1
бітрейт: 448 кб/с

Джерело озвучення:


Аудіо # 2:
мова: англійська
переклад: оригінал
кодек: 5.1
бітрейт: 640 кб/с

Аудіо # 3:
мова: англійська
переклад: оригінал
кодек: TrueHD 7.1
бітрейт: 4443 кб/с

Субтитри (Full, Forced):
мова: українська
тип: програмні (м'які)
формат: *.srt

Субтитри (Full, SDH):
мова: англійська
тип: програмні (м'які)
формат: *.srt
Info
General
Complete name : Bad Times at the El Royale (2018) Remux 4K 2160p (HEVC) HDR H.265 [UKR_ENG] [ViDeO_Hurtom].
Format :
Format version : Version 4
File size : 51.0 GiB
Duration : 2 h 21 min
Overall bit rate mode : Variable
Overall bit rate : 51.6 Mb/s
Movie name : Bad Times at the El Royale (2018) Remux 4K 2160p (HEVC) HDR H.265 [UKR_ENG] [ViDeO_Hurtom]
Encoded date : UTC 2019-02-08 17:44:59
Writing application : v30.1.0 ('Forever And More') 64-bit
Writing library : libebml v1.3.6 + v1.4.9

Video
ID : 1
Format : HEVC
Format/Info : High Efficiency Video Coding
Commercial name : HDR10
Format profile : Main [email protected]@High
Codec ID : V_MPEGH/ISO/HEVC
Duration : 2 h 21 min
Bit rate : 46.0 Mb/s
Width : 3 840 pixels
Height : 2 160 pixels
Display aspect ratio : 16:9
Frame rate mode : Constant
Frame rate : 23.976 (24000/1001) FPS
Color space : YUV
Chroma subsampling : 4:2:0 (Type 2)
Bit depth : 10 bits
Bits/(Pixel*Frame) : 0.231
Stream size : 45.5 GiB (89%)
Writing library : ATEME Titan File 3.9.0 (4.9.0.0)
Language : English
Default : Yes
Forced : No
Color range : Limited
Color primaries : BT.2020
Transfer characteristics : PQ
Matrix coefficients : BT.2020 non-constant
Mastering display color primaries : Display P3
Mastering display luminance : min: 0.0050 cd/m2, max: 1000 cd/m2

Audio #1
ID : 2
Format : AC-3
Format/Info : Audio Coding 3
Commercial name : Dolby Digital
Codec ID : A_AC3
Duration : 2 h 21 min
Bit rate mode : Constant
Bit rate : 448 kb/s
Channel(s) : 6 channels
Channel layout : L R C LFE Ls Rs
Sampling rate : 48.0 kHz
Frame rate : 31.250 FPS (1536 SPF)
Bit depth : 16 bits
Compression mode : Lossy
Delay relative to video : -1 ms
Stream size : 454 MiB (1%)
Title : , 6 ch, 448 Кбт/с
Language : Ukrainian
Service kind : Complete Main
Default : No
Forced : No

Audio #2
ID : 3
Format : AC-3
Format/Info : Audio Coding 3
Commercial name : Dolby Digital
Codec ID : A_AC3
Duration : 2 h 21 min
Bit rate mode : Constant
Bit rate : 640 kb/s
Channel(s) : 6 channels
Channel layout : L R C LFE Ls Rs
Sampling rate : 48.0 kHz
Frame rate : 31.250 FPS (1536 SPF)
Bit depth : 16 bits
Compression mode : Lossy
Delay relative to video : 31 ms
Stream size : 648 MiB (1%)
Title : , 6 ch, 640 Кбт/с
Language : English
Service kind : Complete Main
Default : No
Forced : No

Audio #3
ID : 4
Format : MLP FBA 16-ch
Format/Info : Meridian Lossless Packing FBA with 16-channel presentation
Commercial name : Dolby TrueHD with Dolby Atmos
Codec ID : A_TRUEHD
Duration : 2 h 21 min
Bit rate mode : Variable
Bit rate : 4 443 kb/s
Maximum bit rate : 8 373 kb/s
Channel(s) : 8 channels
Channel layout : L R C LFE Ls Rs Lb Rb
Sampling rate : 48.0 kHz
Frame rate : 1 200.000 FPS (40 SPF)
Compression mode : Lossless
Delay relative to video : 32 ms
Stream size : 4.40 GiB (9%)
Title : TrueHD, 8 ch, 4443 Кбт/с
Language : English
Default : No
Forced : No
Number of dynamic objects : 13
Bed channel count : 1 channel
Bed channel configuration : LFE

Text #1
ID : 5
Format : UTF-8
Codec ID : S_TEXT/UTF8
Codec ID/Info : UTF-8 Plain Text
Duration : 2 h 17 min
Bit rate : 51 b/s
Count of elements : 1323
Stream size : 51.7 KiB (0%)
Title : Full
Language : Ukrainian
Default : No
Forced : No

Text #2
ID : 6
Format : UTF-8
Codec ID : S_TEXT/UTF8
Codec ID/Info : UTF-8 Plain Text
Duration : 2 h 11 min
Bit rate : 0 b/s
Count of elements : 14
Stream size : 525 Bytes (0%)
Title : Forced
Language : Ukrainian
Default : Yes
Forced : No

Text #3
ID : 7
Format : UTF-8
Codec ID : S_TEXT/UTF8
Codec ID/Info : UTF-8 Plain Text
Duration : 2 h 13 min
Bit rate : 41 b/s
Count of elements : 1467
Stream size : 40.5 KiB (0%)
Title : Full
Language : English
Default : No
Forced : No

Text #4
ID : 8
Format : UTF-8
Codec ID : S_TEXT/UTF8
Codec ID/Info : UTF-8 Plain Text
Duration : 2 h 18 min
Bit rate : 45 b/s
Count of elements : 1711
Stream size : 46.2 KiB (0%)
Title : SDH
Language : English
Default : No
Forced : No
Скріншоти
Джерело: &
Особиста оцінка: 6 - третій сорт - не брак
Увага! Перед завантаженням переконайтесь, що ваш пристрій відтворення (та/або ПЗ) підтримує H.265 (HEVC)


Золотий реліз (завантажене не впливає на рейтинг)
 Трекер:    Зареєстрований   

Завантажити / скачати фільм українською



відео для новачків



 Зареєстрований:   2019-02-09 19:07
 Розмір:   51.04 GB 
 Оцінка фільму:   8.3/10 (Голосів: 11)
   
Ваш часовий пояс: GMT + 2 Години

Нова тема   Відповісти