Черепашки ніндзя (Сезон 3) / Teenage Mutant Ninja Turtles (Season 3) (2014-2015) 720p

Нові коментарі

Нова тема   Відповісти
Автор Повідомлення
Kaizoku 
Частий відвідувач


З нами з: 07.04.16
Востаннє: 22.04.21
Повідомлень: 44

2019-02-09 18:15  
Черепашки ніндзя (Сезон 3) / Teenage Mutant Ninja Turtles (Season 3) (2014-2015) 720p

Черепашки ніндзя (Сезон 3) / Teenage Mutant Ninja Turtles (Season 3) (2014-2015) 720p


Жанр: пригодницький, екшн, комедія, фентезі
Країна: США



Кінокомпанія: Nickelodeon Animation Studio
Режисер: Майкл Чанг (Michael Chang), Алан Вон (Alan Wan), Жуан Меза-Леон (Juan Meza-Leon)
Актори/ролі озвучують: Джейсон Біггз (Jason Biggs) - Леонардо, Роб Полсен (Rob Paulsen) - Донателло, Шон Остін (Sean Astin) - Рафаель, Грег Кіпс (Greg Cipes) - Мікеланджело, Хун Лі (Hoon Lee) - Сплінтер, Мей Уітман (Mae Whitman) - Епріл О'Ніл, Кевін Майкл Річардсон (Kevin Michael Richardson) - Шреддер, Нолан Норт (Nolan North) - Краанг, Келлі Ху (Kelly Hu) - Караі

Сюжет:
Лео, Раф, Майкі і Донні - черепашки-мутанти, що навчилися бойовому мистецтву ніндзюцу у свого сенсея вчителі Сплінтера. Вибравшись з каналізації на вулиці Нью-Йорка, брати опиняються в вируючому життям мегаполісі. Тут їм доведеться невпинно протистояти самим кровожерливим лиходіям в історії людства. У вільний від сутичок час хлопці займаються своєю улюбленою справою - дуріють і їдять чудову соковиту піцу! Б'ючись зі Шредером, мерзенним інопланетянином Краангом і натовпами надпотужних мутантів, черепашки вчаться стояти один за одного стіною, щоб стати тими, ким їм наказано бути долею - відважними і благородними героями!


Тривалість: 1 серія: ~ 22 хв. (цілком серій: 26)
Перелік серій
01. Within the Woods
02. A Foot Too Big
03. Buried Secrets
04. The Croaking
05. In Dreams
06. Race with the Demon!
07. Eyes of the Chimera
08. Vision Quest
09. Return to New York
10. Serpent Hunt
11. The Pig and the Rhino
12-13. Battle for New York
14. Casey Jones vs the Underworld
15. The Noxious Avenger
16. Clash of the Mutanimals
17. Meet Mondo Gecko
18. The Deadly Venom
19. Turtles in Time
20. Tale of the Yokai
21. Attack of the Mega Shredder!
22. The Creeping Doom
23. The Fourfold Trap
24.Dinosaur Seen in Sewers!
25-26. Annihilation: Earth!
Якість: 720p
Відео:
кодек:
розмір кадру: 1280 х 720
бітрейт: ~ 3 000 кб/с

Аудіо:
мова: українська
переклад: багатоголосий закадровий
кодек: 2.0
бітрейт: 192 кб/с

Джерело озвучення:
Info
[code]Загальна інформація
General
Complete name : D:\Фільми\Черепахи\[РГ][QTV][s03 e04][The Croaking][MPEG-4 720p ][ua][Kotyavr].mp4
Format : MPEG-4
Format profile : Base Media
Codec ID : isom (isom/iso2/mp41)
File size : 503 MiB
Duration : 22 min 34 s
Overall bit rate mode : Variable
Overall bit rate : 3 114 kb/s
Encoded date : UTC 2019-01-29 13:47:17
Tagged date : UTC 2019-01-29 13:47:17
Writing application : Lavf56.36.100

Video
ID : 2
Format : MPEG-4 Visual
Format profile : Advanced [email protected]
Format settings, BVOP : No
Format settings, QPel : No
Format settings, GMC : No warppoints
Format settings, Matrix : Default (H.263)
Codec ID : mp4v-20
Duration : 22 min 34 s
Bit rate mode : Variable
Bit rate : 2 918 kb/s
Maximum bit rate : 3 030 kb/s
Width : 1 280 pixels
Height : 720 pixels
Display aspect ratio : 16:9
Frame rate mode : Constant
Frame rate : 23.976 (24000/1001) FPS
Color space : YUV
Chroma subsampling : 4:2:0
Bit depth : 8 bits
Scan type : Progressive
Compression mode : Lossy
Bits/(Pixel*Frame) : 0.132
Stream size : 471 MiB (94%)
Writing library : Lavc56.41.100
Language : English
Encoded date : UTC 2019-01-29 13:47:17
Tagged date : UTC 2019-01-29 13:47:17

Audio
ID : 1
Format :
Format/Info : Advanced Audio Codec
Format profile : LC
Codec ID : mp4a-40-2
Duration : 22 min 34 s
Bit rate mode : Constant
Bit rate : 192 kb/s
Channel(s) : 2 channels
Channel positions : Front: L R
Sampling rate : 48.0 kHz
Frame rate : 46.875 FPS (1024 SPF)
Compression mode : Lossy
Stream size : 31.0 MiB (6%)
Language : English
Default : Yes
Alternate group : 1
Encoded date : UTC 2019-01-29 13:47:17
Tagged date : UTC 2019-01-29 13:47:17
Над релізом працювали:
aaa4523 - запис з ТБ. Kotyavr - зведення. Kaizoku - оформлення релізу.
Скріншоти
Джерело:
Особиста оцінка: 8 - мені сподобалося


Бронзовий реліз (на рейтинг впливає 75% завантаженого)
 Трекер:    Зареєстрований   

Завантажити / скачати мультфільм українською



відео для новачків



 Зареєстрований:   2019-04-01 18:32
 Розмір:   12.11 GB 
 Оцінка мультсеріалу:   9.9/10 (Голосів: 8)
   
11FrYkT 
Модератор відео


З нами з: 20.02.11
Востаннє: 23.04.21
Повідомлень: 7153

2019-02-09 19:05  
Kaizoku написано:
(2014-2015) 720p Ukr/Eng

в заголовку вказати якість
Скріншоти повинні бути у форматі ПНГ

bot 
робот


З нами з: 30.09.07
Востаннє: 26.05.05
Повідомлень: 27965

2019-02-09 19:05  
Тему перенесено з Мультсеріали до форуму Мультсеріали в HD


11FrYkT

11FrYkT 
Модератор відео


З нами з: 20.02.11
Востаннє: 23.04.21
Повідомлень: 7153

2019-02-10 09:22  
11FrYkT написано:
Скріншоти повинні бути у форматі ПНГ

Kaizoku 
Частий відвідувач


З нами з: 07.04.16
Востаннє: 22.04.21
Повідомлень: 44

2019-02-10 18:05  
Скріншоти змінили.
Ігор Вінський 
VIP


З нами з: 17.03.11
Востаннє: 22.04.21
Повідомлень: 439

2019-02-12 21:53  
У чотирнадцятій серії є "зображення у зображенні" чи як там воно зветься правильно. Мабуть треба виправити цю серію. А взагалі добре було б якби замінили на нормальний . Ну це так, побажання (просто хотів додати до своєї колекції цей сезон у 1080 але звукова доріжка з цього релізу не підійшла).
Змінив повідомлення, видалив вже неактуальний зняток.

kotyavr 
Новенький


З нами з: 05.03.17
Востаннє: 10.01.21
Повідомлень: 6

2019-02-21 16:46  
На днях виправлю 14-ту
А що до доріжки для веб-дл, дайте мені серію чи посилання на серіі, до яких ви хотіли додати, доріжки зробити під них не буде великою проблемою.

Kaizoku 
Частий відвідувач


З нами з: 07.04.16
Востаннє: 22.04.21
Повідомлень: 44

2019-02-25 23:42  
14 серію виправили.
Ігор Вінський 
VIP


З нами з: 17.03.11
Востаннє: 22.04.21
Повідомлень: 439

2019-02-26 08:57  
kotyavr
Доброго дня. Не слідкував за темою. Якщо Ваша пропозиція ще актуальна то зараз завантажу наявний у мене третій сезон у 1080 на "морально-лисий" обмінник ФЄКС.НЕТ. Посилання дам у приватному повідомленні. Якщо можна то наше озвучення зробіть у 2.0 як цих релізах https://toloka.to/t48720 , https://toloka.to/t66855 (доріжки з тих релізів підійшли до 1080 ідеально).

kotyavr 
Новенький


З нами з: 05.03.17
Востаннє: 10.01.21
Повідомлень: 6

2019-02-26 09:03  
Озвучення з цього вам не підійшло, оскільки я підганяв відео під озвучення з тв, а в тв версії зменшено чи видалено паузи в певних місцях
Dark Invader 
Модератор відео


З нами з: 06.01.11
Востаннє: 23.04.21
Повідомлень: 3182

2019-02-26 16:29  
Kaizoku написано:
720p Ukr/Eng

Судячи із звіту Медіа-Інфо оригінальної доріжки немає. Виправте.

Dimka09876 
Новенький


З нами з: 20.04.18
Востаннє: 27.03.21
Повідомлень: 4

2019-12-26 20:44  
Підключення до Пир бескінечне.Мені обов`язково потрібно завантажити мультфільм
Ваш часовий пояс: GMT + 2 Години

Нова тема   Відповісти