На глибині 6-ти футів / 6 Below: Miracle on the Mountain (2017) Remux 1080p Ukr/Eng

Нові коментарі

Нова тема   Відповісти
Автор Повідомлення
staf777 
Відео Гуртом - підтримка та поширення
Відео Гуртом - підтримка та поширення


З нами з: 16.11.16
Востаннє: 20.04.19
Повідомлень: 2272

2019-02-09 15:19  
На глибині 6-ти футів / 6 Below: Miracle on the Mountain (2017) Remux 1080p Ukr/Eng

На глибині 6-ти футів / 6 Below: Miracle on the Mountain (2017) Remux 1080p Ukr/Eng


Жанр: біографічний, драма, пригодницький, трилер
Країна: США



Кінокомпанія: Dune Entertainment, October Sky Films, Sonar Entertainment
Режисер: Скотт Во
Актори: Джош Хартнетт, Міра Сорвіно, Сара Дюмон, Кейл Каллі, Джейсон Коттл, Остін Р. Грант

Сюжет:
Стрічка, що заснована на реальних подіях, розповість про те, як Лемарк, катаючись на сноуборді, загубився в горах через снігову бурю. Він пробув в ізоляції вісім днів і зумів вижити незважаючи на те, що в той час боровся з наркотичною та алкогольною залежностями. Спортсмен стійко переніс низькі температури і був в підсумку знайдений рятувальниками, але заплатив за це високу ціну, втративши обидві ноги.


Тривалість: 01:37:55
Якість: Remux 1080p [GER Transfer]

Відео:
кодек:
розмір кадру: 1920x1080
бітрейт: 33,8 Mб/с

Аудіо # 1:
мова: українська
переклад: багатоголосий закадровий
кодек: 2.0
бітрейт: 192 кб/с

Аудіо # 2:
мова: англійська
переклад: оригінал
кодек: -HD MA 5.1
бітрейт: 3679 кб/с

Субтитри: (forced)
мова: англійська
тип: пререндерні
формат: *.pgs
Info
General
Unique ID : 184863652056041302734765700015383887995 (0x8B1371BE744A04CD568C30D487EFC07B)
Complete name : S:\» HD українською » Фільми в HD\Трилер\6 Below Miracle on the Mountain (2017) Remux 1080p [UKR][ENG][Hurtom].
Format :
Format version : Version 4
File size : 25.8 GiB
Duration : 1 h 37 min
Overall bit rate mode : Variable
Overall bit rate : 37.7 Mb/s
Movie name : 6 Below Miracle on the Mountain (2017) Remux 1080p [UKR][ENG][Hurtom]
Encoded date : UTC 2019-02-09 15:06:22
Writing application : v30.1.0 ('Forever And More') 64-bit
Writing library : libebml v1.3.6 + v1.4.9
Cover : Yes
Attachments : cover.jpg

Video
ID : 1
Format : AVC
Format/Info : Advanced Video Codec
Format profile : [email protected]
Format settings : CABAC / 4 Ref Frames
Format settings, CABAC : Yes
Format settings, ReFrames : 4 frames
Codec ID : V_MPEG4/ISO/AVC
Duration : 1 h 37 min
Bit rate mode : Variable
Bit rate : 33.8 Mb/s
Maximum bit rate : 36.0 Mb/s
Width : 1 920 pixels
Height : 1 080 pixels
Display aspect ratio : 16:9
Frame rate mode : Constant
Frame rate : 24.000 FPS
Color space : YUV
Chroma subsampling : 4:2:0
Bit depth : 8 bits
Scan type : Progressive
Bits/(Pixel*Frame) : 0.679
Stream size : 23.1 GiB (90%)
Language : English
Default : Yes
Forced : No

Audio #1
ID : 2
Format : AC-3
Format/Info : Audio Coding 3
Commercial name : Dolby Digital
Codec ID : A_AC3
Duration : 1 h 37 min
Bit rate mode : Constant
Bit rate : 192 kb/s
Channel(s) : 2 channels
Channel layout : L R
Sampling rate : 48.0 kHz
Frame rate : 31.250 FPS (1536 SPF)
Bit depth : 16 bits
Compression mode : Lossy
Stream size : 134 MiB (1%)
Title : [UKR-MVO]
Language : Ukrainian
Service kind : Complete Main
Default : Yes
Forced : Yes

Audio #2
ID : 3
Format : XLL
Format/Info : Digital Theater Systems
Commercial name : -HD Master Audio
Codec ID : A_DTS
Duration : 1 h 37 min
Bit rate mode : Variable
Bit rate : 3 679 kb/s
Channel(s) : 6 channels
Channel layout : C L R Ls Rs LFE
Sampling rate : 48.0 kHz
Frame rate : 93.750 FPS (512 SPF)
Bit depth : 24 bits
Compression mode : Lossless
Stream size : 2.52 GiB (10%)
Language : English
Default : No
Forced : No

Text
ID : 4
Format : PGS
Muxing mode : zlib
Codec ID : S_HDMV/PGS
Codec ID/Info : Picture based subtitle format used on BDs/HD-DVDs
Duration : 1 h 35 min
Bit rate : 612 b/s
Count of elements : 40
Stream size : 429 KiB (0%)
Language : English
Default : No
Forced : No

Menu
00:00:00.000 : :Chapter 01
00:11:16.916 : :Chapter 02
00:19:13.083 : :Chapter 03
00:28:02.290 : :Chapter 04
00:38:49.958 : :Chapter 05
00:47:14.208 : :Chapter 06
00:54:47.458 : :Chapter 07
01:05:56.041 : :Chapter 08
01:15:09.666 : :Chapter 09
01:24:23.832 : :Chapter 10
01:34:21.207 : :Chapter 11



Підтримати купівлю інших фільмів можна тут.



Джерело: & & &

Особиста оцінка: 10 - без зайвих вагань рекомендую всім!


Золотий реліз (завантажене не впливає на рейтинг)
 Трекер:    Зареєстрований   

Завантажити / скачати фільм українською



відео для новачків



 Зареєстрований:   2019-02-09 18:37
 Розмір:   25.77 GB 
 Оцінка фільму:   8.1/10 (Голосів: 7)
   
bot 
робот


З нами з: 30.09.07
Востаннє: 26.05.05
Повідомлень: 21220

2019-02-09 18:36  
Тему перенесено з Анонси релізів до форуму Фільми в HD


staf777

Ваш часовий пояс: GMT + 2 Години

Нова тема   Відповісти