На глибині 6-ти футів / 6 Below: Miracle on the Mountain (2017) 1080p Ukr/Eng

Нові коментарі

Нова тема   Відповісти
Автор Повідомлення
staf777 
Відео Гуртом - підтримка та поширення
Відео Гуртом - підтримка та поширення


З нами з: 16.11.16
Востаннє: 15.12.19
Повідомлень: 3085

2019-02-09 10:42  
На глибині 6-ти футів / 6 Below: Miracle on the Mountain (2017) 1080p Ukr/Eng

На глибині 6-ти футів / 6 Below: Miracle on the Mountain (2017) 1080p Ukr/Eng


Жанр: біографічний, драма, пригодницький, трилер
Країна: США



Кінокомпанія: Dune Entertainment, October Sky Films, Sonar Entertainment
Режисер: Скотт Во
Актори: Джош Хартнетт, Міра Сорвіно, Сара Дюмон, Кейл Каллі, Джейсон Коттл, Остін Р. Грант

Сюжет:
Стрічка, що заснована на реальних подіях, розповість про те, як Лемарк, катаючись на сноуборді, загубився в горах через снігову бурю. Він пробув в ізоляції вісім днів і зумів вижити незважаючи на те, що в той час боровся з наркотичною та алкогольною залежностями. Спортсмен стійко переніс низькі температури і був в підсумку знайдений рятувальниками, але заплатив за це високу ціну, втративши обидві ноги.


Тривалість: 01:37:55
Якість: 1080p
Відео:
кодек:
розмір кадру: 1920x696
бітрейт: 8333 кб/с

Аудіо # 1:
мова: українська
переклад: багатоголосий закадровий
кодек: 2.0
бітрейт: 192 кб/с

Аудіо # 2:
мова: англійська
переклад: оригінал
кодек: 5.1
бітрейт: 1509 кб/с

Субтитри (Forced):
мова: англійська
тип: програмні (м'які)
формат: *.srt
Info
General
Unique ID : 132916028356779613384521841003329252369 (0x63FEB2272AA48E9BBC1AD15C66CC6C11)
Complete name : S:\» HD українською » Фільми в HD\Трилер\6 Below Miracle on the Mountain (2017) 1080p [UKR][ENG][Hurtom].
Format :
Format version : Version 4
File size : 6.86 GiB
Duration : 1 h 37 min
Overall bit rate : 10.0 Mb/s
Movie name : 6 Below: Miracle on the Mountain (2017) 1080p [UKR][ENG][Hurtom]
Encoded date : UTC 2019-02-09 12:14:00
Writing application : v30.1.0 ('Forever And More') 64-bit
Writing library : libebml v1.3.6 + v1.4.9
Cover : Yes
Attachments : cover.jpg

Video
ID : 1
Format : AVC
Format/Info : Advanced Video Codec
Format profile : [email protected]
Format settings : CABAC / 5 Ref Frames
Format settings, CABAC : Yes
Format settings, ReFrames : 5 frames
Codec ID : V_MPEG4/ISO/AVC
Duration : 1 h 37 min
Bit rate : 8 333 kb/s
Width : 1 920 pixels
Height : 696 pixels
Display aspect ratio : 2.759
Frame rate mode : Constant
Frame rate : 24.000 FPS
Color space : YUV
Chroma subsampling : 4:2:0
Bit depth : 8 bits
Scan type : Progressive
Bits/(Pixel*Frame) : 0.260
Stream size : 5.69 GiB (83%)
Title : potroks
Writing library : core 155 r2901M 7d0ff22
Encoding settings : cabac=1 / ref=5 / deblock=1:-3:-3 / analyse=0x3:0x111 / me=umh / subme=11 / psy=1 / psy_rd=1.00:0.10 / mixed_ref=1 / me_range=48 / chroma_me=1 / trellis=2 / 8x8dct=1 / cqm=0 / deadzone=21,11 / fast_pskip=0 / chroma_qp_offset=-3 / threads=9 / lookahead_threads=2 / sliced_threads=0 / nr=0 / decimate=0 / interlaced=0 / bluray_compat=0 / constrained_intra=0 / bframes=12 / b_pyramid=2 / b_adapt=2 / b_bias=0 / direct=3 / weightb=1 / open_gop=0 / weightp=2 / keyint=240 / keyint_min=23 / scenecut=40 / intra_refresh=0 / rc_lookahead=100 / rc=2pass / mbtree=0 / bitrate=8333 / ratetol=1.0 / qcomp=0.70 / qpmin=0 / qpmax=69 / qpstep=4 / cplxblur=20.0 / qblur=0.5 / vbv_maxrate=50000 / vbv_bufsize=50000 / nal_hrd=none / filler=0 / ip_ratio=1.40 / pb_ratio=1.30 / aq=1:0.70
Language : English
Default : Yes
Forced : No

Audio #1
ID : 2
Format : AC-3
Format/Info : Audio Coding 3
Commercial name : Dolby Digital
Codec ID : A_AC3
Duration : 1 h 37 min
Bit rate mode : Constant
Bit rate : 192 kb/s
Channel(s) : 2 channels
Channel layout : L R
Sampling rate : 48.0 kHz
Frame rate : 31.250 FPS (1536 SPF)
Bit depth : 16 bits
Compression mode : Lossy
Stream size : 134 MiB (2%)
Title : [UKR-MVO]
Language : Ukrainian
Service kind : Complete Main
Default : Yes
Forced : Yes

Audio #2
ID : 3
Format :
Format/Info : Digital Theater Systems
Codec ID : A_DTS
Duration : 1 h 37 min
Bit rate mode : Constant
Bit rate : 1 509 kb/s
Channel(s) : 6 channels
Channel layout : C L R Ls Rs LFE
Sampling rate : 48.0 kHz
Frame rate : 93.750 FPS (512 SPF)
Bit depth : 24 bits
Compression mode : Lossy
Stream size : 1.03 GiB (15%)
Title : Original | 5.1 @ 1509 kbps
Language : English
Default : No
Forced : No

Text
ID : 4
Format : UTF-8
Codec ID : S_TEXT/UTF8
Codec ID/Info : UTF-8 Plain Text
Duration : 1 h 35 min
Bit rate : 0 b/s
Count of elements : 20
Stream size : 644 Bytes (0%)
Title : Forced
Language : English
Default : No
Forced : No

Menu
00:00:00.000 : en:(01)00:00:00:000
00:11:16.916 : en:(02)00:11:16:916
00:19:13.083 : en:(03)00:19:13:083
00:28:02.290 : en:(04)00:28:02:290
00:38:49.958 : en:(05)00:38:49:958
00:47:14.208 : en:(06)00:47:14:208
00:54:47.458 : en:(07)00:54:47:458
01:05:56.041 : en:(08)01:05:56:041
01:15:09.666 : en:(09)01:15:09:666
01:24:23.832 : en:(10)01:24:23:832
01:34:21.207 : en:(11)01:34:21:207



Підтримати купівлю інших фільмів можна тут.



Джерело: & & &

Особиста оцінка: 10 - без зайвих вагань рекомендую всім!


 Трекер:    Зареєстрований   

Завантажити / скачати фільм українською



відео для новачків



 Зареєстрований:   2019-02-09 14:27
 Розмір:   6.86 GB 
 Оцінка фільму:   8.3/10 (Голосів: 14)
   
kabizdoh 
Новенький


З нами з: 08.09.11
Востаннє: 11.12.19
Повідомлень: 9

2019-02-09 15:33  
Фільм не поганий. Але історія, якщо вона реальна, повне лайно. Ще про одного недоумка "дятловца".Моя оцінка 7 з 10.
hetzendorf 
Попереджень: 2
Попереджень: 2 


З нами з: 23.07.15
Востаннє: 16.12.19
Повідомлень: 2599

2019-02-09 22:42  
kabizdoh написано:
Ще про одного недоумка "дятловца"

А до чого тут група Дятлова і з чого б це вони недоумки?

kabizdoh 
Новенький


З нами з: 08.09.11
Востаннє: 11.12.19
Повідомлень: 9

2019-02-10 10:29  
Дятловці до того, що шукають екстремальних пригод , а знаходять муки та й ще смерть.
hetzendorf 
Попереджень: 2
Попереджень: 2 


З нами з: 23.07.15
Востаннє: 16.12.19
Повідомлень: 2599

2019-02-10 17:43  
kabizdoh
У 1950-ті роки у совку не було навіть такого поняття «екстремальних пригод». Група Дятлова складалася зі студентів-спортсменів інститутського турклубу й ішла у плановий категорійний похід. Підготовка й організація походу здійснювалися зі всіма заходами безпеки за правилами й нормами того часу. Встановлено, що загибель 9 з 10 учасників походу є нещасний випадок, найбільш імовірна причина — раптове погіршення погодних умов, надзвичайне погодне або/та природне явище. Подібні трагедії з аналогічних причин не є унікальним явищем у практиці туризму і, на жаль, трапляються регулярно.

Custo 12 
Свій


З нами з: 08.11.16
Востаннє: 14.12.19
Повідомлень: 121

2019-02-10 20:47  
hetzendorf
Щось потворюєш нісенітниці як зазубрені. Звідки ти про це так впевнений? Зі слів незнайомих людей? Подорослішай і шукай деінде вихлоп для своєї цікавості. Подорожуй світом і відкривай його для себе, а не заривайся в давньому третьосортному саспесні. Дивитись таке кіно не буду.

hetzendorf 
Попереджень: 2
Попереджень: 2 


З нами з: 23.07.15
Востаннє: 16.12.19
Повідомлень: 2599

2019-02-10 21:06  
Custo 12
В тому, що пишу, я впевнений із власного досвіду. В тому числі й з походів у гори. Натомість нісенітницю якусь тут пишеш ти. Ти сам хоч зрозумів, що написав? Точнісінько, як в одній пісні групи Rammstein: Hat viel geredet — nichts gesagt ^__^
Custo 12 написано:
саспесні

Пиши українською й постарайся без одруківок.

Custo 12 
Свій


З нами з: 08.11.16
Востаннє: 14.12.19
Повідомлень: 121

2019-02-11 08:50  
hetzendorf
Шкода що ти такий обмежений. Але ні, не шкода.

hetzendorf 
Попереджень: 2
Попереджень: 2 


З нами з: 23.07.15
Востаннє: 16.12.19
Повідомлень: 2599

2019-02-11 09:52  
Custo 12
Чуєш, необмежений, чи не міг би ти з голосами в своїй голові якось сам на сам балакати? Бо нам це не цікаво @[email protected]

patriot__85 







2019-02-11 14:59  
hetzendorf
Цитата:
Бо нам це не цікаво

Кому це нам? Розберися з своїми особистостями і вроди одну, узгоджену із ними мислю. Не розбирайся тут з людьми, тобі треба з cобою, з вами, розібратись.

Custo 12 
Свій


З нами з: 08.11.16
Востаннє: 14.12.19
Повідомлень: 121

2019-02-12 10:51  
patriot__85
))))

vertolyot 
Новенький


З нами з: 05.01.14
Востаннє: 08.12.19
Повідомлень: 9

2019-02-19 20:00  
схоже в камєнтах хіпстори напали на бувалого туриста.
як ви тут взагалі так себе поводите коли не знаєте навіть віку співрозмовника?

фільм качну вже з цікавості

hetzendorf 
Попереджень: 2
Попереджень: 2 


З нами з: 23.07.15
Востаннє: 16.12.19
Повідомлень: 2599

2019-08-12 22:32  
Фільм непоганий за винятком
доволі серйозного ляпа >_<
Радіоприймач ніяких сигналів не передає! Він лише приймає сигнал. Це приймач, а не передавач, чорт забирай!
Такі фільми мусять застерігати від повторення таких цікавих дослідів та за можливості — вчити давати собі ради, якщо вже таке лихо сталося. Тож ляпи при цьому неприпустимі.
7/10

telefunx 
Забанено
Забанено


З нами з: 19.04.19
Востаннє: 14.08.19
Повідомлень: 19

2019-08-12 23:26  
vertolyot
То були зрячі хіпстери. І заздрісні.

Ваш часовий пояс: GMT + 2 Години

Нова тема   Відповісти