Кіборг / Cyborg (1989) AVC Ukr/Eng | Sub Eng

Нові коментарі

Нова тема   Відповісти
Автор Повідомлення
staf777 
Відео Гуртом - підтримка та поширення
Відео Гуртом - підтримка та поширення


З нами з: 16.11.16
Востаннє: 20.04.19
Повідомлень: 2267

2019-02-09 10:37  
Кіборг / Cyborg (1989) AVC Ukr/Eng | Sub Eng

Кіборг / Cyborg (1989) AVC Ukr/Eng | Sub Eng


Жанр: фантастика, екшн
Країна: США



Кінокомпанія: Cannon Entertainment
Режисер: Альберт П'юн / Albert Pyun
Актори: Жан Клод Ван-Дам / Jean-Claude Van Damme, Дебора Ріхтер / Deborah Richter, Вінсент Клін / Vincent Klyn, Алекс Деніелс / Alex Daniels, Дейл Геддон / Dayle Haddon, Бейс Лунґ / Blaise Loong, Террі Бацон / Terrie Batson та ін.

Сюжет:
21-ше століття. Світ потерпає від суцільної анархії, та смертоносної чуми. І тільки Перл Профет, напівжінка-напівробот, володіє інформацією, що допоможе створити довгоочікувані ліки від чуми. Вона потрапляє до рук злого ватажка банди, що планує використати її знання, та саму вакцину у своїх цілях, і ці цілі не такі вже й милосердні. Тепер лише залізний кулак, та сталеві нерви воїна Гібсона можуть врятувати жінку-кіборга, та доправити її до Атланти, де купка вчених намагаються врятувати людство.


Тривалість: 01:26:24
Якість:
Відео:
кодек:
розмір кадру: 1024x552
бітрейт: 3100 кб/с

Аудіо # 1:
мова: українська
переклад: двоголосий закадровий
кодек: 2.0
бітрейт: 192 кб/с

Аудіо # 2:
мова: англійська
переклад: оригінал
кодек: 2.0
бітрейт: 192 кб/с

Джерело озвучення:


Субтитри:
мова: англійська
тип: програмні (м'які)
формат: *.srt
Скріншоти





MI
General
Unique ID : 173405719546843918678644798047279829212 (0x8274BA0E468CE090EE61D9B5BF92D0DC)
Complete name : E:\Фільми AVC\Фантастика\Cyborg (1989) AVC[UKR][ENG][Hurtom]..
Format :
Format version : Version 4
File size : 2.10 GiB
Duration : 1 h 26 min
Overall bit rate : 3 483 kb/s
Movie name : Cyborg (1989) AVC[UKR][ENG][Hurtom]
Encoded date : UTC 2019-02-09 07:24:06
Writing application : v30.1.0 ('Forever And More') 64-bit
Writing library : libebml v1.3.6 + v1.4.9
Cover : Yes
Attachments : cover.jpg

Video
ID : 1
Format : AVC
Format/Info : Advanced Video Codec
Format profile : [email protected]
Format settings : CABAC / 10 Ref Frames
Format settings, CABAC : Yes
Format settings, ReFrames : 10 frames
Codec ID : V_MPEG4/ISO/AVC
Duration : 1 h 26 min
Bit rate : 3 100 kb/s
Width : 1 024 pixels
Height : 552 pixels
Display aspect ratio : 1.85:1
Frame rate mode : Constant
Frame rate : 23.976 (24000/1001) FPS
Color space : YUV
Chroma subsampling : 4:2:0
Bit depth : 8 bits
Scan type : Progressive
Bits/(Pixel*Frame) : 0.229
Stream size : 1.87 GiB (89%)
Title : Rip by 0ptimus
Writing library : core 125 r2208 d9d2288
Encoding settings : cabac=1 / ref=10 / deblock=1:-3:-3 / analyse=0x3:0x113 / me=umh / subme=11 / psy=1 / psy_rd=1.00:0.20 / mixed_ref=1 / me_range=32 / chroma_me=1 / trellis=2 / 8x8dct=1 / cqm=0 / deadzone=21,11 / fast_pskip=0 / chroma_qp_offset=-3 / threads=4 / lookahead_threads=1 / sliced_threads=0 / nr=0 / decimate=0 / interlaced=0 / bluray_compat=0 / constrained_intra=0 / bframes=12 / b_pyramid=2 / b_adapt=2 / b_bias=0 / direct=3 / weightb=1 / open_gop=0 / weightp=2 / keyint=240 / keyint_min=23 / scenecut=40 / intra_refresh=0 / rc_lookahead=40 / rc=2pass / mbtree=0 / bitrate=3100 / ratetol=1.0 / qcomp=0.60 / qpmin=0 / qpmax=69 / qpstep=4 / cplxblur=20.0 / qblur=0.5 / vbv_maxrate=50000 / vbv_bufsize=50000 / nal_hrd=none / ip_ratio=1.40 / pb_ratio=1.30 / aq=1:1.00
Language : English
Default : Yes
Forced : Yes

Audio #1
ID : 2
Format : AC-3
Format/Info : Audio Coding 3
Commercial name : Dolby Digital
Codec ID : A_AC3
Duration : 1 h 26 min
Bit rate mode : Constant
Bit rate : 192 kb/s
Channel(s) : 2 channels
Channel layout : L R
Sampling rate : 48.0 kHz
Frame rate : 31.250 FPS (1536 SPF)
Bit depth : 16 bits
Compression mode : Lossy
Stream size : 119 MiB (6%)
Title : [UKR-1+1]
Language : Ukrainian
Service kind : Complete Main
Default : Yes
Forced : Yes

Audio #2
ID : 3
Format : AC-3
Format/Info : Audio Coding 3
Commercial name : Dolby Digital
Codec ID : A_AC3
Duration : 1 h 26 min
Bit rate mode : Constant
Bit rate : 192 kb/s
Channel(s) : 2 channels
Channel layout : L R
Sampling rate : 48.0 kHz
Frame rate : 31.250 FPS (1536 SPF)
Bit depth : 16 bits
Compression mode : Lossy
Stream size : 119 MiB (6%)
Title : 2.0 @ 192 kbps
Language : English
Service kind : Complete Main
Default : No
Forced : No

Text
ID : 4
Format : UTF-8
Codec ID : S_TEXT/UTF8
Codec ID/Info : UTF-8 Plain Text
Duration : 1 h 25 min
Bit rate : 12 b/s
Count of elements : 326
Stream size : 8.17 KiB (0%)
Language : English
Default : No
Forced : No

Menu
00:00:00.000 : :Opening Logos
00:00:25.192 : :"The Collapse Of Civilization"
00:04:14.087 : :Opening Credits
00:05:24.699 : :Pearl: Atlanta Or Bust...Or Both!
00:10:31.881 : :The Horrors Of My Mind
00:16:20.479 : :Two For The Road
00:23:38.167 : :The Pirates Of Menace
00:28:52.814 : :Fender's Boat Will Pass Here
00:32:34.077 : :The Legend Of Pearl Prophet
00:36:01.076 : :Hot On Fender's Trail
00:40:01.482 : :Face To Face With The Enemy
00:46:34.917 : :Down In The Depths
00:49:52.364 : :The Killing Fields
00:55:11.725 : :Face-To-Fist Combat
00:56:38.103 : :Crucified
00:59:36.615 : :Flashbacks/Freedom
01:05:58.037 : :Welcome To Atlanta
01:09:25.036 : :Good Versus Evil
01:12:41.566 : :The Final Countdown!
01:19:29.723 : :While You Were Out-Cold
01:22:11.802 : :End Credits
Джерело: &
Особиста оцінка: 8 - мені сподобалося


Срібний реліз (на рейтинг впливає 50% завантаженого)
 Трекер:    Зареєстрований   

Завантажити / скачати фільм українською



відео для новачків



 Зареєстрований:   2019-02-09 10:37
 Розмір:   2.1 GB 
 Оцінка фільму:   9.4/10 (Голосів: 8)
   
Інші релізи
   Кіборг / Cyborg (1989) Remux 1080p Ukr/Eng | Sub Eng staf777  1 / 0   19.33 GB   2019-03-03 21:05 
   Кіборг / Cyborg (1989) 1080p Ukr/Eng | Sub Eng drop_plz  1 / 0   7.94 GB   2018-07-18 13:26 
СВВ 
Частий відвідувач


З нами з: 22.06.11
Востаннє: 20.04.19
Повідомлень: 29

2019-02-09 10:59  
Клас. Старі фільми.
Ваш часовий пояс: GMT + 2 Години

Нова тема   Відповісти