Кращий стрілець / Найкращий стрілець / Top Gun (1986) Remux 1080p Ukr/Eng | Sub Eng

Нові коментарі

Нова тема   Відповісти
Автор Повідомлення
MakRA 
Поважний учасник


З нами з: 11.11.18
Востаннє: 22.04.19
Повідомлень: 174

2019-02-09 04:09  
Кращий стрілець / Найкращий стрілець / Top Gun (1986) Remux 1080p Ukr/Eng | Sub Eng

Кращий стрілець / Найкращий стрілець / Top Gun (1986) Remux 1080p Ukr/Eng | Sub Eng


Український постер:



Жанр: екшн, мелодрама
Країна: США



Кінокомпанія: Paramount Pictures
Режисер: Тоні Скотт [Tony Scott]
Актори: Том Круз [Tom Cruise],Келлі МакГілліс [Kelly McGillis], Вел Кілмер [Val Kilmer], Ентоні Едвардс [Anthony Edwards], Том Скерріт [Tom Skerritt], Майкл Айронсайд [Michael Ironside], Джон Стоквелл [John Stockwell], Беррі Табб [Barry Tubb], Рік Россовіч [Rick Rossovich], Тім Роббінс [Tim Robbins], Кларенс Гільярд мол. [Clarence Gilyard Jr.], Віп Хаблі [Whip Hubley], Джеймс Толкан [James Tolkan], Мег Раян [Meg Ryan], Адріан Пасдар [Adrian Pasdar], Рендалл Брейді [Randall Brady], Дьюк Страуд [Duke Stroud], Брайан Шиен [Brian Sheehan], Рон Кларк [Ron Clark], Френк Пеше [Frank Pesce], Піт Петтігрю [Pete Pettigrew], Трой Хантер [Troy Hunter], Т.Дж. Кессіді [T.J. Cassidy].

Сюжет:
Піт Мітчелл на прізвисько "Меверік" - курсант елітного училища ВМС США. Він - майбутній пілот винищувача Ф-14 і бореться за те, щоб бути кращим у випуску. Але життя затьмарюють дві речі. По-перше, як в небі, так і в житті він більше керується інстинктами, а не розумом - інакше б відразу зрозумів, що по вуха закохуватися в красуню-інструктора - затія даремна і здатна зіпсувати йому кар'єру...

Цікаві факти:


Фільм з’явився після того, як Джеррі Брукхаймер в 1983 році прочитав статтю в журналі California про військово-морській школі United States Navy Fighter Weapons School і загорівся бажанням зробити про це кіно. Цікаво, що назву для майбутнього проекту на той момент вже було гранично ясно: це буде Topgun (або TOPGUN), що було спрощеним варіантом назви діючої програми військової підготовки United States Navy Strike Fighter Tactics Instructor program (SFTI program).

З слогану фільму I feel the bad, the need for speed згодом народилася серія комп’ютерних гоночних ігор Need for Speed.


Нагороди та номінації:


Оскар, 1987

Переможець: 1
Найкраща пісня

Номінації: 3
Найкращий звук
Найкращий монтаж
Найкращий монтаж звуку

Золотий глобус, 1987

Переможець: 1
Найкраща пісня
Номінації: 1
Найкращий саундтрек: Харольд Фальтермайер


Тривалість: 01:49:36
Якість: Remux 1080p
Відео:
кодек:
розмір кадру: 1920 х 1080
бітрейт: 29.9 Mb/s

Аудіо # 1: TB+ на замовлення
мова: українська
переклад: багатоголосий закадровий [ТВ+]
кодек: 5.1
бітрейт: 448 kb/s
Про озвучення:

Ролі озвучили: Зіновенко Тетяна, Зіновенко Анатолій, другий чоловічий голос не встановлено
Аудіо # 2:
мова: англійська
переклад: оригінал
кодек: -MA 6.1
бітрейт: 4 930 kb/s

Аудіо # 3:
мова: англійська
переклад: оригінал
кодек: 5.1
бітрейт: 448 kb/s

Субтитри # 1-2:
мова: англійська
тип: пререндерні
формат: *.pgs
Info
General
Unique ID : 144318968098689011223579051770661649754 (0x6C92D27D09CE6FA238B5A290FAD53D5A)
Complete name : F:\Top Gun (1986) Remux 1080p UkrEng Sub Eng [Hurtom].
Format :
Format version : Version 4 / Version 2
File size : 27.4 GiB
Duration : 1 h 49 min
Overall bit rate mode : Variable
Overall bit rate : 35.8 Mb/s
Encoded date : UTC 2019-02-08 23:20:30
Writing application : v25.0.0 ('Prog Noir') 64-bit
Writing library : libebml v1.3.6 + v1.4.9

Video
ID : 1
Format : AVC
Format/Info : Advanced Video Codec
Format profile : [email protected]
Format settings, CABAC : Yes
Format settings, RefFrames : 2 frames
Format settings, GOP : M=1, N=10
Codec ID : V_MPEG4/ISO/AVC
Duration : 1 h 49 min
Bit rate mode : Variable
Bit rate : 29.9 Mb/s
Width : 1 920 pixels
Height : 1 080 pixels
Display aspect ratio : 16:9
Frame rate mode : Constant
Frame rate : 23.976 (24000/1001) FPS
Color space : YUV
Chroma subsampling : 4:2:0
Bit depth : 8 bits
Scan type : Progressive
Bits/(Pixel*Frame) : 0.602
Stream size : 22.9 GiB (84%)
Title : Top Gun (1986) Remux 1080p Ukr/Eng | Sub Eng
Language : Ukrainian
Default : Yes
Forced : Yes

Audio #1
ID : 2
Format : AC-3
Format/Info : Audio Coding 3
Format settings, Endianness : Big
Codec ID : A_AC3
Duration : 1 h 49 min
Bit rate mode : Constant
Bit rate : 448 kb/s
Channel(s) : 6 channels
Channel positions : Front: L C R, Side: L R, LFE
Sampling rate : 48.0 kHz
Frame rate : 31.250 FPS (1536 SPF)
Bit depth : 16 bits
Compression mode : Lossy
Stream size : 351 MiB (1%)
Title : MVO [ТВ+] на замовлення ICTV
Language : Ukrainian
Service kind : Complete Main
Default : Yes
Forced : No

Audio #2
ID : 3
Format :
Format/Info : Digital Theater Systems
Format profile : MA / ES Discrete / Core
Mode : 16
Format settings, Endianness : Big
Codec ID : A_DTS
Duration : 1 h 49 min
Bit rate mode : Variable / Constant / Constant
Bit rate : 4 930 kb/s / 1 509 kb/s / 1 509 kb/s
Channel(s) : 7 channels / 7 channels / 6 channels
Channel positions : Front: L C R, Side: L R, Back: C, LFE / Front: L C R, Side: L R, Back: C, LFE / Front: L C R, Side: L R, LFE
Sampling rate : 48.0 kHz
Frame rate : 93.750 FPS (512 SPF)
Bit depth : 24 bits
Compression mode : Lossless / Lossy / Lossy
Stream size : 3.77 GiB (14%)
Title : Original -HD Master Audio
Language : English
Default : No
Forced : No

Audio #3
ID : 4
Format : AC-3
Format/Info : Audio Coding 3
Format settings, Endianness : Big
Codec ID : A_AC3
Duration : 1 h 49 min
Bit rate mode : Constant
Bit rate : 448 kb/s
Channel(s) : 6 channels
Channel positions : Front: L C R, Side: L R, LFE
Sampling rate : 48.0 kHz
Frame rate : 31.250 FPS (1536 SPF)
Bit depth : 16 bits
Compression mode : Lossy
Stream size : 351 MiB (1%)
Title : Original
Language : English
Service kind : Complete Main
Default : No
Forced : No

Text #1
ID : 5
Format : PGS
Muxing mode : zlib
Codec ID : S_HDMV/PGS
Codec ID/Info : Picture based subtitle format used on BDs/HD-DVDs
Duration : 1 h 40 min
Bit rate : 38.7 kb/s
Count of elements : 2782
Stream size : 27.8 MiB (0%)
Title : Eng
Language : English
Default : No
Forced : No

Text #2
ID : 6
Format : PGS
Muxing mode : zlib
Codec ID : S_HDMV/PGS
Codec ID/Info : Picture based subtitle format used on BDs/HD-DVDs
Duration : 1 h 42 min
Bit rate : 40.5 kb/s
Count of elements : 2998
Stream size : 29.8 MiB (0%)
Title : Eng
Language : English
Default : No
Forced : No
Скріншоти
Джерело: &
Особиста оцінка: 10 - без зайвих вагань рекомендую всім!

Подяка п. Romario_O за готову україномовну доріжку і п. thefir за українізований постер



Золотий реліз (завантажене не впливає на рейтинг)
 Трекер:    Зареєстрований   

Завантажити / скачати фільм українською



відео для новачків



 Зареєстрований:   2019-02-09 04:09
 Розмір:   27.39 GB 
 Оцінка фільму:   9.5/10 (Голосів: 2)
   
MakRA 
Поважний учасник


З нами з: 11.11.18
Востаннє: 22.04.19
Повідомлень: 174

2019-02-09 14:34  
Шикарні саундтреки у фільмі, сьогодні спеціально скачав альмом). В очікуванні сіквела, в 2020 ніби має бути.
messer3 
Новенький


З нами з: 06.09.10
Востаннє: 21.04.19
Повідомлень: 15

2019-02-09 15:48  
Класика світового кінематографу, обожнюю даний фільм, прекрасна та неймовірно харизматична гра усіх акторів, надзвичайної краси польоти та динамічні ефекти як на 1986 рік. В даній стрічці прекрасно гармонують чудовий сюжет, надзвичайна любовна лінія, відносини між людьми, а також неймовірно мальовничо відображена краса літаків та їх маневренні польоти у поєднанні з відпрацюванням повітряних боїв що само собою не тільки радує око як звичайних глядачів так особливо і зацікавлених авіацією обличь так таким чином це справляє надзвичайно мотивуючу пропаганду Повітряних Сил арміїї США та флоту.Мені як палкому шанувальнику авіаціїї данний фільм надзвичайно подобається. Кому подобається то також рекомендую не менш цікавий та захоплюючий французький фільм "Лицарі неба" 2005 року.
Ваш часовий пояс: GMT + 2 Години

Нова тема   Відповісти