Дівчина в тумані / La ragazza nella nebbia (2017) 1080p Ukr/Ita | Sub Eng/Ita

Нові коментарі

Нова тема   Відповісти
Автор Повідомлення
staf777 
Відео Гуртом - підтримка та поширення
Відео Гуртом - підтримка та поширення


З нами з: 16.11.16
Востаннє: 14.10.19
Повідомлень: 2977

2019-02-08 13:42  
Дівчина в тумані / La ragazza nella nebbia (2017) 1080p Ukr/Ita | Sub Eng/Ita

Дівчина в тумані / La ragazza nella nebbia (2017) 1080p Ukr/Ita | Sub Eng/Ita


Жанр: кримінальний, детектив, трилер
Країна: Італія, Німеччина, Франція



Кінокомпанія: Colorado Film Production, Medusa Film, IDM Südtirol - Alto Adige Film Fund
Режисер: Донато Каріссі / Donato Carrisi
Актори: Тоні Сервілло / Toni Servillo, Алессіо Боні / Alessio Boni, Лоренцо Річелмі / Lorenzo Richelmy, Ґалатея Ранзі / Galatea Ranzi, Мічела Кескон / Michela Cescon, Жан Рено / Jean Reno, Ґрета Сачі / Greta Scacchi та інші.

Сюжет:
Анна Лу вийшла з дому до церкви й так і не повернулася. Найдивніше те, що немає ніяких слідів убивства та самої жертви. Ніхто не знає, куди зникла Анна. Через деякий час за цю справу взявся блискучий детектив Фоґель, який спеціалізується на затриманні серійних убивць і маніяків. Незабаром після цих подій інспектор потрапляє в аварію. Фоґель не пам'ятає що трапилося. Чому він потрапив у аварію, що сталася і чия кров у нього на сорочці? Обстежити його тієї зимової ночі покликали психіатра Авґусто Флореса. Розмовляючи, чоловіки приходять до неймовірного ланцюжка подій, який прояснює всі темні моменти життя містечка.


Тривалість: 02:08:18
Якість: 1080p
Відео:
кодек:
розмір кадру: 1920x802
бітрейт: 7375 кб/с

Аудіо # 1:
мова: українська
переклад: багатоголосий закадровий
кодек: 2.0 (стерео)
бітрейт: 192 кб/с

Аудіо # 2:
мова: італійська
переклад: оригінал
кодек: 5.1
бітрейт: 640 кб/с

Субтитри:
мова: англійська,італійська
тип: програмні (м'які)
формат: *.srt
Info
General
Unique ID : 268122629110542253997907966290177496915 (0xC9B68A3E90EA976AA91B76197CA31753)
Complete name : S:\» HD українською » Фільми в HD\Трилер\La ragazza nella nebbia (2017) 1080p [UKR][ENG][Hurtom].
Format :
Format version : Version 4
File size : 7.35 GiB
Duration : 2 h 8 min
Overall bit rate : 8 207 kb/s
Movie name : La ragazza nella nebbia (2017) 1080p [UKR][ENG][Hurtom]
Encoded date : UTC 2019-02-08 12:09:33
Writing application : v30.1.0 ('Forever And More') 64-bit
Writing library : libebml v1.3.6 + v1.4.9
Cover : Yes
Attachments : cover.jpg

Video
ID : 1
Format : AVC
Format/Info : Advanced Video Codec
Format profile : [email protected]
Format settings : CABAC / 5 Ref Frames
Format settings, CABAC : Yes
Format settings, ReFrames : 5 frames
Codec ID : V_MPEG4/ISO/AVC
Duration : 2 h 8 min
Bit rate : 7 375 kb/s
Width : 1 920 pixels
Height : 802 pixels
Display aspect ratio : 2.40:1
Frame rate mode : Constant
Frame rate : 24.000 FPS
Color space : YUV
Chroma subsampling : 4:2:0
Bit depth : 8 bits
Scan type : Progressive
Bits/(Pixel*Frame) : 0.200
Stream size : 6.61 GiB (90%)
Title : rip by -=walledol=-
Writing library : core 152 r2851 ba24899
Encoding settings : cabac=1 / ref=5 / deblock=1:-3:-3 / analyse=0x3:0x133 / me=umh / subme=11 / psy=1 / psy_rd=1.00:0.03 / mixed_ref=1 / me_range=32 / chroma_me=1 / trellis=2 / 8x8dct=1 / cqm=0 / deadzone=21,11 / fast_pskip=0 / chroma_qp_offset=-3 / threads=6 / lookahead_threads=1 / sliced_threads=0 / nr=0 / decimate=1 / interlaced=0 / bluray_compat=0 / constrained_intra=0 / bframes=10 / b_pyramid=2 / b_adapt=2 / b_bias=0 / direct=3 / weightb=1 / open_gop=0 / weightp=2 / keyint=240 / keyint_min=24 / scenecut=40 / intra_refresh=0 / rc_lookahead=60 / rc=2pass / mbtree=0 / bitrate=7375 / ratetol=1.0 / qcomp=0.60 / qpmin=0 / qpmax=69 / qpstep=4 / cplxblur=20.0 / qblur=0.5 / vbv_maxrate=30000 / vbv_bufsize=33000 / nal_hrd=none / filler=0 / ip_ratio=1.40 / pb_ratio=1.30 / aq=3:0.75
Language : Italian
Default : Yes
Forced : No

Audio #1
ID : 2
Format : AC-3
Format/Info : Audio Coding 3
Commercial name : Dolby Digital
Codec ID : A_AC3
Duration : 2 h 8 min
Bit rate mode : Constant
Bit rate : 192 kb/s
Channel(s) : 2 channels
Channel layout : L R
Sampling rate : 48.0 kHz
Frame rate : 31.250 FPS (1536 SPF)
Bit depth : 16 bits
Compression mode : Lossy
Stream size : 176 MiB (2%)
Title : MVO [Volia CINE+] 2.0 [stereo] 192 Kbps
Language : Ukrainian
Service kind : Complete Main
Default : Yes
Forced : Yes

Audio #2
ID : 3
Format : AC-3
Format/Info : Audio Coding 3
Commercial name : Dolby Digital
Codec ID : A_AC3
Duration : 2 h 8 min
Bit rate mode : Constant
Bit rate : 640 kb/s
Channel(s) : 6 channels
Channel layout : L R C LFE Ls Rs
Sampling rate : 48.0 kHz
Frame rate : 31.250 FPS (1536 SPF)
Bit depth : 16 bits
Compression mode : Lossy
Stream size : 587 MiB (8%)
Language : Italian
Service kind : Complete Main
Default : No
Forced : No

Text #1
ID : 4
Format : UTF-8
Codec ID : S_TEXT/UTF8
Codec ID/Info : UTF-8 Plain Text
Duration : 1 h 59 min
Bit rate : 45 b/s
Count of elements : 1085
Stream size : 39.9 KiB (0%)
Title : Full
Language : English
Default : No
Forced : No

Text #2
ID : 5
Format : UTF-8
Codec ID : S_TEXT/UTF8
Codec ID/Info : UTF-8 Plain Text
Duration : 2 h 3 min
Bit rate : 58 b/s
Count of elements : 1041
Stream size : 53.0 KiB (0%)
Title : SDH
Language : Italian
Default : No
Forced : No

Menu
00:00:00.000 : en:Chapter 01
00:06:17.875 : en:Chapter 02
00:15:48.041 : en:Chapter 03
00:22:44.500 : en:Chapter 04
00:31:22.083 : en:Chapter 05
00:39:51.750 : en:Chapter 06
00:47:44.416 : en:Chapter 07
00:54:36.416 : en:Chapter 08
01:01:11.750 : en:Chapter 09
01:11:32.083 : en:Chapter 10
01:18:15.791 : en:Chapter 11
01:27:31.708 : en:Chapter 12
01:38:13.875 : en:Chapter 13
01:47:45.541 : en:Chapter 14
01:57:28.083 : en:Chapter 15
Скріншоти




Запис з ТБ та синхронізація Sando7
Джерело: &
Особиста оцінка: 0 - не дивився


 Трекер:    Зареєстрований   

Завантажити / скачати фільм українською



відео для новачків



 Зареєстрований:   2019-02-08 15:23
 Розмір:   7.35 GB 
 Оцінка фільму:   8.8/10 (Голосів: 17)
   
bot 
робот


З нами з: 30.09.07
Востаннє: 26.05.05
Повідомлень: 22280

2019-02-08 13:42  
Тему перенесено з Фільми в HD до форуму Анонси релізів


staf777

bot 
робот


З нами з: 30.09.07
Востаннє: 26.05.05
Повідомлень: 22280

2019-02-08 15:23  
Тему перенесено з Анонси релізів до форуму Фільми в HD


staf777

Fonbaron 
Свій


З нами з: 09.12.12
Востаннє: 08.10.19
Повідомлень: 132

2019-02-08 23:41  
Роль Жана Рено триває хвилин п'ять і зовсім не розкриває його персонажа. Слідчий розуміє, що відбувається з трудом. Весь фільм похмурий, все відбувається в темряві. Персонажі не розкриті. Ідея ніяка.
Zheka_K 
Новенький


З нами з: 27.10.17
Востаннє: 07.10.19
Повідомлень: 5

2019-02-14 18:34  
Fonbaron
Тільки про 5 хв правду написали! Слідчий все розуміє, тільки довести не може це. У фільмі чудові краєвиди! Дуже гарний фільм, в якому не розжовують все, а треба трошки подумати! Чудово показані СМІ та люди!
А в кінці "оце так поворот" просто супер!!!

Ваш часовий пояс: GMT + 2 Години

Нова тема   Відповісти