Ворог мій / Enemy Mine (1985) 1080p 2xUkr/Eng | Sub Eng

Нові коментарі

Нова тема   Відповісти
Автор Повідомлення
staf777 
Відео Гуртом - підтримка та поширення
Відео Гуртом - підтримка та поширення


З нами з: 16.11.16
Востаннє: 23.04.19
Повідомлень: 2284

2019-02-08 12:32  
Ворог мій / Enemy Mine (1985) 1080p 2xUkr/Eng | Sub Eng

Ворог мій / Enemy Mine (1985) 1080p 2xUkr/Eng | Sub Eng


Жанр: екшн, пригодницький, драма, фантастика
Країна: США



Кінокомпанія: Twentieth Century Fox Film Corporation
Режисер: Вольфганг Петерсен (Wolfgang Petersen)
Актори: Денніс Квейд (Dennis Quaid), Луї Госсе мол. (Louis Gossett Jr.), Брайон Джеймс (Brion James), Керолін МакКормік (Carolyn McCormick), Річард Маркус (Richard Marcus), Бампер Робінсон (Bumper Robinson), Джим Мапп (Jim Mapp), Ленс Кервін (Lance Kerwin), Скотт Крафт (Scott Kraft), Лу Майклс (Lou Michaels), Енді Джиро (Andy Geer), Генрі Столов (Henry Stolow), Херб Андрес (Herb Andress), Данмар (Danmar), Менді Хаусенбергер (Mandy Hausenberger)

Сюжет:
Під час галактичної війни між людьми і расою рептилій в одній з жорстоких сутичок на околицях гористої планетки в системі подвійної зірки пілот Вілліс Девідж збиває машину чужого, але тут же отримує кілька влучень і виходить із бою. Єдине місце, де можна вижити після падіння - та сама планетка. Але впавши, він виявляє, що збитий ним чужий не загинув. Смертельні вороги виявляються замкнені на планеті, і вибір простий - знищити один одного або укласти перемир'я і спробувати врятуватися. Що виявиться сильніше: бажання жити або ненависть і біль за загиблих?


Тривалість: 01:48:09
Якість: 1080p
Відео:
кодек:
розмір кадру: 1920x808
бітрейт: 8000 кб/с

Аудіо # 1: &
мова: українська
переклад: двоголосий закадровий
кодек: 2.0
бітрейт: 192 кб/с

Аудіо # 2: VHS
мова: українська
переклад: двоголосий закадровий
кодек: 2.0
бітрейт: 192 кб/с

Аудіо # 3:
мова: англійська
переклад: оригінал
кодек: 5.1
бітрейт: 448 кб/с

Субтитри:
мова: англійська
тип: програмні (м'які)
формат: *.srt
Info
General
Unique ID : 315761703075011163056448711925955413819 (0xED8D7DEEC006F9EA22B1D12589CDC73B)
Complete name : S:\» HD українською » Фільми в HD\Фантастика\Enemy Mine (1985) 1080p [2xUKR][ENG][Hurtom].
Format :
Format version : Version 4
File size : 6.67 GiB
Duration : 1 h 48 min
Overall bit rate : 8 831 kb/s
Movie name : Enemy Mine (1985) 1080p [2xUKR][ENG][Hurtom]
Encoded date : UTC 2019-02-08 09:34:31
Writing application : v30.1.0 ('Forever And More') 64-bit
Writing library : libebml v1.3.6 + v1.4.9
Cover : Yes
Attachments : cover.jpg

Video
ID : 1
Format : AVC
Format/Info : Advanced Video Codec
Format profile : [email protected]
Format settings : CABAC / 5 Ref Frames
Format settings, CABAC : Yes
Format settings, ReFrames : 5 frames
Codec ID : V_MPEG4/ISO/AVC
Duration : 1 h 48 min
Bit rate : 8 000 kb/s
Width : 1 920 pixels
Height : 808 pixels
Display aspect ratio : 2.40:1
Frame rate mode : Constant
Frame rate : 23.976 FPS
Color space : YUV
Chroma subsampling : 4:2:0
Bit depth : 8 bits
Scan type : Progressive
Bits/(Pixel*Frame) : 0.215
Stream size : 6.04 GiB (91%)
Writing library : core 125 r2208 d9d2288
Encoding settings : cabac=1 / ref=5 / deblock=1:-3:-3 / analyse=0x3:0x133 / me=umh / subme=11 / psy=1 / psy_rd=1.00:0.15 / mixed_ref=1 / me_range=48 / chroma_me=0 / trellis=2 / 8x8dct=1 / cqm=0 / deadzone=21,11 / fast_pskip=0 / chroma_qp_offset=-3 / threads=6 / lookahead_threads=1 / sliced_threads=0 / nr=0 / decimate=0 / interlaced=0 / bluray_compat=0 / constrained_intra=0 / bframes=5 / b_pyramid=2 / b_adapt=2 / b_bias=0 / direct=3 / weightb=1 / open_gop=1 / weightp=2 / keyint=240 / keyint_min=23 / scenecut=40 / intra_refresh=0 / rc_lookahead=50 / rc=2pass / mbtree=1 / bitrate=8000 / ratetol=1.0 / qcomp=0.60 / qpmin=0 / qpmax=69 / qpstep=4 / cplxblur=20.0 / qblur=0.5 / ip_ratio=1.40 / aq=1:1.00
Language : English
Default : Yes
Forced : No

Audio #1
ID : 2
Format : AC-3
Format/Info : Audio Coding 3
Commercial name : Dolby Digital
Codec ID : A_AC3
Duration : 1 h 48 min
Bit rate mode : Constant
Bit rate : 192 kb/s
Channel(s) : 2 channels
Channel layout : L R
Sampling rate : 48.0 kHz
Frame rate : 31.250 FPS (1536 SPF)
Bit depth : 16 bits
Compression mode : Lossy
Stream size : 149 MiB (2%)
Title : [UA-DVO-2+2]
Language : Ukrainian
Service kind : Complete Main
Default : Yes
Forced : Yes

Audio #2
ID : 3
Format : AC-3
Format/Info : Audio Coding 3
Commercial name : Dolby Digital
Codec ID : A_AC3
Duration : 1 h 48 min
Bit rate mode : Constant
Bit rate : 192 kb/s
Channel(s) : 2 channels
Channel layout : L R
Sampling rate : 48.0 kHz
Frame rate : 31.250 FPS (1536 SPF)
Bit depth : 16 bits
Compression mode : Lossy
Stream size : 149 MiB (2%)
Title : [UA-DVO-1+1]
Language : Ukrainian
Service kind : Complete Main
Default : No
Forced : No

Audio #3
ID : 4
Format : AC-3
Format/Info : Audio Coding 3
Commercial name : Dolby Digital
Codec ID : A_AC3
Duration : 1 h 48 min
Bit rate mode : Constant
Bit rate : 448 kb/s
Channel(s) : 4 channels
Channel layout : L R C Cb
Sampling rate : 48.0 kHz
Frame rate : 31.250 FPS (1536 SPF)
Bit depth : 16 bits
Compression mode : Lossy
Stream size : 347 MiB (5%)
Language : English
Service kind : Complete Main
Default : No
Forced : No

Text
ID : 5
Format : UTF-8
Codec ID : S_TEXT/UTF8
Codec ID/Info : UTF-8 Plain Text
Duration : 1 h 42 min
Bit rate : 34 b/s
Count of elements : 1032
Stream size : 25.6 KiB (0%)
Language : English
Default : No
Forced : No



Робота зі звуком: _oles
Запис із ТБ: xSlim
Постер: Тирік

Джерело: &
Особиста оцінка: 10 - без зайвих вагань рекомендую всім!


Срібний реліз (на рейтинг впливає 50% завантаженого)
 Трекер:    Зареєстрований   

Завантажити / скачати фільм українською



відео для новачків



 Зареєстрований:   2019-02-08 13:28
 Розмір:   6.67 GB 
 Оцінка фільму:   8.1/10 (Голосів: 15)
   
Інші релізи
   Ворог мій / Enemy Mine (1985) Remux 1080p 2xUkr/Eng | Sub Eng staf777  4 / 0   17.52 GB   2018-06-27 18:24 
   Ворог мій / Enemy Mine (1985) AVC 2xUkr/Eng | Sub Eng staf777  19 / 1   2.52 GB   2018-06-26 21:22 
   Ворог мій / Enemy Mine (1985) 2xUkr/Eng xslim  9 / 0   2.19 GB   2014-02-13 05:43 
   Ворог мій / Enemy Mine (1985) 720p 2xUkr/Eng | Sub Eng BOOGud  3 / 0   5.4 GB   2014-02-12 20:08 
   Ворог мій / Enemy Mine (1985) urij546724  3 / 0   1.51 GB   2010-09-26 21:07 
bot 
робот


З нами з: 30.09.07
Востаннє: 26.05.05
Повідомлень: 21237

2019-02-08 13:27  
Тему перенесено з Анонси релізів до форуму Фільми в HD


staf777

MutuLI 
Відео Гуртом - фільмокрай
Відео Гуртом - фільмокрай


З нами з: 08.03.09
Востаннє: 23.04.19
Повідомлень: 1491

2019-03-15 12:28  
trasylo 
Частий відвідувач


З нами з: 24.12.16
Востаннє: 23.04.19
Повідомлень: 39

2019-03-16 13:46  
Чудовий фільм. Рекомендую всім любителям фантастики
Ваш часовий пояс: GMT + 2 Години

Нова тема   Відповісти