У топці / Boiler Room (2000) 720p Ukr/Eng | Sub Eng

Нові коментарі

Нова тема   Відповісти
Автор Повідомлення
staf777 
Відео Гуртом - підтримка та поширення
Відео Гуртом - підтримка та поширення


З нами з: 16.11.16
Востаннє: 11.12.19
Повідомлень: 3042

2019-02-08 10:45  
У топці / Boiler Room (2000) 720p Ukr/Eng | Sub Eng

У топці / Boiler Room (2000) 720p Ukr/Eng | Sub Eng


Жанр: драма, кримінальний, трилер
Країна: США



Кінокомпанія: New Line Cinema, Team Todd
Режисер: Бен Янгер / Ben Younger
Актори: Джованні Рібізі / Giovanni Ribisi, Він Дизель / Vin Diesel, Ніа Лонг / Nia Long, Ніккі Кетт / Nicky Katt, Бен Аффлек / Ben Affleck, Джейми Кеннеді / Jamie Kennedy та інші

Сюжет:
Чи цікавилися ви коли-небудь питанням, чому деякі люди виграють у лотерею мільйони доларів, а ви ні? Чому ви заробляєте 4 тис. доларів на рік, а секретарка з «Майкрософт» 140 тис. доларів? Чому якийсь бовдур роз'їжджає на новенькому «Феррарі», а ви працею накопичили на уживаний «Вольво»? Невже ці люди розумніші або кращі за вас?!?

Ці ж запитання ставив собі і Сет Девіс, молодий шулер, який відкрив у своїй квартирі невелике підпільне казино. Доля була до нього прихильною і один з клієнтів, неймовірно багатий молодий чоловік, пропонує йому працювати на якусь брокерську фірму, де місячна зарплата перевищує річний дохід від його казино. Сет щасливий, його мрія здійснюється, гроші ллються рікою, але незабаром він починає розуміти, що за все в житті доводиться розплачуватися ...


Тривалість: 01:59:29
Якість: 720p
Відео:
кодек:
розмір кадру: 1280х720
бітрейт: 4583 кб/с

Аудіо # 1:
мова: українська
переклад: двоголосий закадровий
кодек: 5.1
бітрейт: 384 кб/с

Аудіо # 2:
мова: англійська
переклад: оригінал
кодек: 5.1
бітрейт: 1509 кб/с

Джерело озвучення:


Субтитри: (форсовані до місць без перекладу)
мова: українська
тип: програмні (м'які)
формат: *.srt

Субтитри:
мова: англійська
тип: програмні (м'які)
формат: *.srt
MI
General
Unique ID : 245753974822753575208673823130736274738 (0xB8E27E70A53AA4A5ABAD6679489A2D32)
Complete name : S:\» HD українською » Фільми в HD\Трилер\Boiler Room (2000) 720p [UKR][ENG][Hurtom].
Format :
Format version : Version 4
File size : 5.41 GiB
Duration : 1 h 59 min
Overall bit rate : 6 477 kb/s
Movie name : Boiler Room (2000) 720p [UKR][ENG][Hurtom]
Encoded date : UTC 2019-02-08 08:37:50
Writing application : v30.1.0 ('Forever And More') 64-bit
Writing library : libebml v1.3.6 + v1.4.9
Cover : Yes
Attachments : cover.jpg

Video
ID : 1
Format : AVC
Format/Info : Advanced Video Codec
Format profile : [email protected]
Format settings : CABAC / 8 Ref Frames
Format settings, CABAC : Yes
Format settings, ReFrames : 8 frames
Codec ID : V_MPEG4/ISO/AVC
Duration : 1 h 59 min
Bit rate : 4 583 kb/s
Width : 1 280 pixels
Height : 720 pixels
Display aspect ratio : 16:9
Frame rate mode : Constant
Frame rate : 23.976 (24000/1001) FPS
Color space : YUV
Chroma subsampling : 4:2:0
Bit depth : 8 bits
Scan type : Progressive
Bits/(Pixel*Frame) : 0.207
Stream size : 3.82 GiB (71%)
Title : Boiler Room (2000)
Writing library : core 112 r1867 22bfd31
Encoding settings : cabac=1 / ref=8 / deblock=1:-2:-1 / analyse=0x3:0x113 / me=umh / subme=10 / psy=1 / psy_rd=1.00:0.10 / mixed_ref=1 / me_range=32 / chroma_me=1 / trellis=2 / 8x8dct=1 / cqm=0 / deadzone=21,11 / fast_pskip=0 / chroma_qp_offset=-3 / threads=12 / sliced_threads=0 / nr=0 / decimate=0 / interlaced=0 / constrained_intra=0 / bframes=3 / b_pyramid=2 / b_adapt=2 / b_bias=0 / direct=3 / weightb=1 / open_gop=0 / weightp=2 / keyint=250 / keyint_min=23 / scenecut=40 / intra_refresh=0 / rc_lookahead=60 / rc=2pass / mbtree=1 / bitrate=4583 / ratetol=1.0 / qcomp=0.60 / qpmin=0 / qpmax=51 / qpstep=4 / cplxblur=20.0 / qblur=0.5 / vbv_maxrate=50000 / vbv_bufsize=50000 / nal_hrd=none / ip_ratio=1.40 / aq=1:1.00
Language : Russian
Default : Yes
Forced : No

Audio #1
ID : 2
Format : AC-3
Format/Info : Audio Coding 3
Commercial name : Dolby Digital
Codec ID : A_AC3
Duration : 1 h 59 min
Bit rate mode : Constant
Bit rate : 384 kb/s
Channel(s) : 6 channels
Channel layout : L R C LFE Ls Rs
Sampling rate : 48.0 kHz
Frame rate : 31.250 FPS (1536 SPF)
Bit depth : 16 bits
Compression mode : Lossy
Stream size : 328 MiB (6%)
Title : 5.1 @ 384 kbps
Language : Ukrainian
Service kind : Complete Main
Default : Yes
Forced : Yes

Audio #2
ID : 3
Format :
Format/Info : Digital Theater Systems
Codec ID : A_DTS
Duration : 1 h 59 min
Bit rate mode : Constant
Bit rate : 1 509 kb/s
Channel(s) : 6 channels
Channel layout : C L R Ls Rs LFE
Sampling rate : 48.0 kHz
Frame rate : 93.750 FPS (512 SPF)
Bit depth : 24 bits
Compression mode : Lossy
Stream size : 1.26 GiB (23%)
Language : English
Default : No
Forced : No

Text #1
ID : 4
Format : UTF-8
Codec ID : S_TEXT/UTF8
Codec ID/Info : UTF-8 Plain Text
Duration : 5 min 44 s
Bit rate : 157 b/s
Count of elements : 85
Stream size : 6.60 KiB (0%)
Title : (до місць без перекладу)
Language : Ukrainian
Default : Yes
Forced : Yes

Text #2
ID : 5
Format : UTF-8
Codec ID : S_TEXT/UTF8
Codec ID/Info : UTF-8 Plain Text
Duration : 1 h 52 min
Bit rate : 94 b/s
Count of elements : 1755
Stream size : 77.8 KiB (0%)
Title : English
Language : English
Default : No
Forced : No



Подяка MAKAPOHHIKу за запис звуку.
Подяка w2958l за переклад субтитрів.

Джерело: & &
Особиста оцінка: 0 - не дивився


Срібний реліз (на рейтинг впливає 50% завантаженого)
 Трекер:    Зареєстрований   

Завантажити / скачати фільм українською



відео для новачків



 Зареєстрований:   2019-02-08 11:18
 Розмір:   5.41 GB 
 Оцінка фільму:   8/10 (Голосів: 5)
   
Інші релізи
   У топці / Boiler Room (2000) 1080p H.265 Ukr/Eng | Sub Eng -Star-Lord-  2 / 0   9.08 GB   2018-12-06 22:13 
   У топці / Boiler Room (2000) AVC Ukr/Eng | Sub Eng staf777  2 / 0   2.96 GB   2018-09-10 08:54 
   У топці / Boiler Room (2000) Ukr/Eng | Sub Eng Neo777  1 / 0   2.29 GB   2011-05-24 20:57 
Ваш часовий пояс: GMT + 2 Години

Нова тема   Відповісти