Життя, яке воно є / Life Itself (2018) 1080p Ukr/Eng | Sub Ukr/Eng

Нові коментарі

Нова тема   Відповісти
Автор Повідомлення
staf777 
Відео Гуртом - підтримка та поширення
Відео Гуртом - підтримка та поширення


З нами з: 16.11.16
Востаннє: 23.04.19
Повідомлень: 2285

2019-02-08 10:13  
Життя, яке воно є / Life Itself (2018) 1080p Ukr/Eng | Sub Ukr/Eng

Життя, яке воно є / Life Itself (2018) 1080p Ukr/Eng | Sub Ukr/Eng

Альтернативний постер:

Життя, яке воно є / Life Itself (2018) 1080p Ukr/Eng | Sub Ukr/Eng


Жанр: драма, мелодрама
Країна: США



Кінокомпанія: FilmNation Entertainment, Nostromo Pictures, Temple Hill Entertainment
Режисер: Ден Фогельман
Актори: Оскар Айзек, Олівія Вайлд, Аннетт Бенінг, Менді Петінкін, Джин Смарт, Олівія Кук, Серджо Періс-Менчета, Антоніо Бандерас, Лайа Коста, Алекс Моннер

Сюжет:
Життя молодої пари на перехресті різних доль, розділених десятиліттями і континентами. Одна подія запускає невидимий механізм і народжує диво, яке хтось назве… сенсом.


Тривалість: 01:57:32
Якість: 1080p

Відео:
кодек:
розмір кадру: 1920x800
бітрейт: 8680 кб/с

Аудіо # 1:
мова: українська
переклад: професійний дубльований
кодек: 2.0
бітрейт: 192 кб/с

Аудіо # 2:
мова: англійська
переклад: оригінал
кодек: 5.1
бітрейт: 640 кб/с

Субтитри: (Forced, Full)
мова: українська
тип: програмні (м'які)
формат: *.srt

Субтитри: (Forced, Full, SDH)
мова: англійська
тип: програмні (м'які)
формат: *.srt
Info
General
Unique ID : 17232240436307177770620992486516966737 (0xCF6CF0CA2159FCAE3EE28FBF16FC551)
Complete name : S:\» HD українською » Фільми в HD\Драма\Life Itself (2018) 1080p [UKR][ENG][Hurtom].
Format :
Format version : Version 4
File size : 7.81 GiB
Duration : 1 h 57 min
Overall bit rate : 9 511 kb/s
Movie name : Life Itself (2018) 1080p [UKR][ENG][Hurtom]
Encoded date : UTC 2019-02-08 07:40:21
Writing application : v30.1.0 ('Forever And More') 64-bit
Writing library : libebml v1.3.6 + v1.4.9
Cover : Yes
Attachments : cover.jpg

Video
ID : 1
Format : AVC
Format/Info : Advanced Video Codec
Format profile : [email protected]
Format settings : CABAC / 5 Ref Frames
Format settings, CABAC : Yes
Format settings, ReFrames : 5 frames
Codec ID : V_MPEG4/ISO/AVC
Duration : 1 h 57 min
Bit rate : 8 680 kb/s
Width : 1 920 pixels
Height : 800 pixels
Display aspect ratio : 2.40:1
Frame rate mode : Constant
Frame rate : 23.976 (24000/1001) FPS
Color space : YUV
Chroma subsampling : 4:2:0
Bit depth : 8 bits
Scan type : Progressive
Bits/(Pixel*Frame) : 0.236
Stream size : 7.12 GiB (91%)
Writing library : core 157 r2935 545de2f
Encoding settings : cabac=1 / ref=5 / deblock=1:-3:-3 / analyse=0x3:0x113 / me=umh / subme=8 / psy=1 / psy_rd=1.00:0.00 / mixed_ref=1 / me_range=32 / chroma_me=1 / trellis=2 / 8x8dct=1 / cqm=0 / deadzone=21,11 / fast_pskip=1 / chroma_qp_offset=-2 / threads=25 / lookahead_threads=4 / sliced_threads=0 / nr=0 / decimate=1 / interlaced=0 / bluray_compat=0 / constrained_intra=0 / bframes=3 / b_pyramid=2 / b_adapt=2 / b_bias=0 / direct=3 / weightb=1 / open_gop=0 / weightp=2 / keyint=240 / keyint_min=24 / scenecut=40 / intra_refresh=0 / rc_lookahead=50 / rc=2pass / mbtree=1 / bitrate=8680 / ratetol=1.0 / qcomp=0.60 / qpmin=0 / qpmax=69 / qpstep=4 / cplxblur=20.0 / qblur=0.5 / ip_ratio=1.40 / aq=3:0.80
Default : Yes
Forced : No

Audio #1
ID : 2
Format : AC-3
Format/Info : Audio Coding 3
Commercial name : Dolby Digital
Codec ID : A_AC3
Duration : 1 h 57 min
Bit rate mode : Constant
Bit rate : 192 kb/s
Channel(s) : 2 channels
Channel layout : L R
Sampling rate : 48.0 kHz
Frame rate : 31.250 FPS (1536 SPF)
Bit depth : 16 bits
Compression mode : Lossy
Stream size : 161 MiB (2%)
Language : Ukrainian
Service kind : Complete Main
Default : Yes
Forced : Yes

Audio #2
ID : 3
Format : AC-3
Format/Info : Audio Coding 3
Commercial name : Dolby Digital
Codec ID : A_AC3
Duration : 1 h 57 min
Bit rate mode : Constant
Bit rate : 640 kb/s
Channel(s) : 6 channels
Channel layout : L R C LFE Ls Rs
Sampling rate : 48.0 kHz
Frame rate : 31.250 FPS (1536 SPF)
Bit depth : 16 bits
Compression mode : Lossy
Stream size : 538 MiB (7%)
Language : English
Service kind : Complete Main
Default : No
Forced : No

Text #1
ID : 4
Format : UTF-8
Codec ID : S_TEXT/UTF8
Codec ID/Info : UTF-8 Plain Text
Duration : 1 h 2 min
Bit rate : 36 b/s
Count of elements : 405
Stream size : 17.0 KiB (0%)
Title : Forced
Language : Ukrainian
Default : Yes
Forced : Yes

Text #2
ID : 5
Format : UTF-8
Codec ID : S_TEXT/UTF8
Codec ID/Info : UTF-8 Plain Text
Duration : 1 h 56 min
Bit rate : 100 b/s
Count of elements : 1481
Stream size : 85.5 KiB (0%)
Title : Full
Language : Ukrainian
Default : No
Forced : No

Text #3
ID : 6
Format : UTF-8
Codec ID : S_TEXT/UTF8
Codec ID/Info : UTF-8 Plain Text
Duration : 46 min 25 s
Bit rate : 29 b/s
Count of elements : 435
Stream size : 10.1 KiB (0%)
Title : Forced
Language : English
Default : No
Forced : No

Text #4
ID : 7
Format : UTF-8
Codec ID : S_TEXT/UTF8
Codec ID/Info : UTF-8 Plain Text
Duration : 1 h 48 min
Bit rate : 67 b/s
Count of elements : 1839
Stream size : 53.3 KiB (0%)
Title : Full
Language : English
Default : No
Forced : No

Text #5
ID : 8
Format : UTF-8
Codec ID : S_TEXT/UTF8
Codec ID/Info : UTF-8 Plain Text
Duration : 1 h 49 min
Bit rate : 72 b/s
Count of elements : 2024
Stream size : 58.2 KiB (0%)
Title : SDH
Language : English
Default : No
Forced : No

Menu
00:00:00.000 : en:Chapter 01
00:16:06.465 : en:Chapter 02
00:31:07.032 : en:Chapter 03
00:41:31.906 : en:Chapter 04
00:54:06.034 : en:Chapter 05
01:16:33.255 : en:Chapter 06
01:34:59.027 : en:Chapter 07
01:49:20.429 : en:Chapter 08
Скріншоти






Підтримати купівлю інших фільмів можна тут.

Подяка пану AngryBirdsUA за доріжку.


Джерело: &
Особиста оцінка: 10 - без зайвих вагань рекомендую всім!


 Трекер:    Зареєстрований   

Завантажити / скачати фільм українською



відео для новачків



 Зареєстрований:   2019-02-08 10:52
 Розмір:   7.81 GB 
 Оцінка фільму:   8.4/10 (Голосів: 13)
   
bot 
робот


З нами з: 30.09.07
Востаннє: 26.05.05
Повідомлень: 21237

2019-02-08 10:51  
Тему перенесено з Анонси релізів до форуму Фільми в HD


staf777

Ваш часовий пояс: GMT + 2 Години

Нова тема   Відповісти