Погані часи у «Ель Роялі» / Bad Times at the El Royale (2018) 1080p H.265 Ukr/Eng | Sub Ukr/Eng

Нові коментарі

Нова тема   Відповісти
Автор Повідомлення
-Star-Lord- 
VIP


З нами з: 09.08.18
Востаннє: 23.04.19
Повідомлень: 737

2019-02-07 20:20  
Погані часи у «Ель Роялі» / Bad Times at the El Royale (2018) 1080p H.265 Ukr/Eng | Sub Ukr/Eng

Погані часи у «Ель Роялі» / Bad Times at the El Royale (2018) 1080p H.265 Ukr/Eng | Sub Ukr/Eng


Жанр: детектив, драма, кримінальний, трилер
Країна: США
Кінокомпанія: 20th Century Fox
Режисер: Дрю Ґоддард
Актори: Джефф Бріджес, Синтія Еріво, Дакота Джонсон, Джон Хемм, Кріс Гемсворт, Кайлі Спейні, Льюїс Пуллман, Нік Офферман, Ксав'є Долан, Ші Уігхем

Сюжет:
Співачка, похмурий священик, завзятий продавець пилососів і мовчазна дівчина. Що могло звести разом усіх цих абсолютно різних особистостей в одному готелі під назвою "Ель Рояль"? Цей заклад знаходиться на кордоні штатів Каліфорнія та Невада, і, при бажанні, відвідувачі можуть вибрати, у якому штаті переночувати. Зараз готель далеко не такий популярний як раніше, але часом тут бувають такі ось цікаві особистості. Особливо спекотно стає тоді, коли до "Ель Рояль" підходить лідер зловісного культу, у якого є свої цілі. Кожен із постояльців закладу має таємниці, які краще би нікому і ніколи не дізнатися, але ця ніч багато що змінить.


Тривалість: 02:21:37
Якість:

Відео:
кодек: H.265 (HEVC)
розмір кадру: 1920 x 800
бітрейт: 5 980 кб/с
бітова глибина: 10 біт
Увага! Перед завантаженням переконайтесь, що ваш пристрій відтворення (та/або ПЗ) підтримує H.265 (HEVC)

Аудіо # 1:
мова: українська
переклад: професійний дубльований
кодек: AC-3 5.1
бітрейт: 448 кб/с

Аудіо # 2:
мова: англійська
переклад: оригінал
кодек: 5.1
бітрейт: 1510 кб/с

Субтитри # 1:
мова: українська (Forced),
тип: програмні (м'які)
формат: *.srt

Субтитри # 2:
мова: українська (Full),
тип: програмні (м'які)
формат: *.srt

Субтитри # 3:
мова: англійська (Full),
тип: програмні (м'які)
формат: *.srt

Субтитри # 4:
мова: англійська (SDH),
тип: програмні (м'які)
формат: *.srt


Info
Код:
General
Unique ID                                : 7361746648452335064073343175233607205 (0x589D222006F0041BD7B18F6E2DF9625)
Complete name                            : F:\Video\Bad Times at the El Royale (2018) 1080p H.265 [UKR_ENG].
Format                                   :
Format version                           : Version 4 / Version 2
File size                                : 7.85 GiB
Duration                                 : 2 h 21 min
Overall bit rate                         : 7 940 kb/s
Movie name                               : Bad Times at the El Royale (2018)
Encoded date                             : UTC 2019-02-07 16:48:27
Writing application                      : v20.0.0 ('I Am The Sun') 64-bit
Writing library                          : libebml v1.3.5 + v1.4.8
Cover                                    : Yes
Attachments                              : cover.jpg

Video
ID                                       : 1
Format                                   : HEVC
Format/Info                              : High Efficiency Video Coding
Format profile                           : Main [email protected]@High
Codec ID                                 : V_MPEGH/ISO/HEVC
Duration                                 : 2 h 21 min
Bit rate                                 : 5 980 kb/s
Width                                    : 1 920 pixels
Height                                   : 800 pixels
Display aspect ratio                     : 2.40:1
Frame rate mode                          : Constant
Frame rate                               : 23.976 (24000/1001) FPS
Color space                              : YUV
Chroma subsampling                       : 4:2:0
Bit depth                                : 10 bits
Bits/(Pixel*Frame)                       : 0.162
Stream size                              : 5.92 GiB (75%)
Title                                    : Bad Times at the El Royale (2018)
Writing library                          : x265 2.9+2-7e978ed93d60:[Windows][GCC 8.2.0][64 bit] 10bit
Encoding settings                        : cpuid=1111039 / frame-threads=4 / numa-pools=14,14 / wpp / pmode / no-pme / no-psnr / no-ssim / log-level=2 / input-csp=1 / input-res=1920x800 / interlace=0 / total-frames=203746 / level-idc=41 / high-tier=1 / uhd-bd=0 / ref=3 / no-allow-non-conformance / no-repeat-headers / annexb / no-aud / no-hrd / info / hash=0 / no-temporal-layers / open-gop / min-keyint=23 / keyint=240 / gop-lookahead=0 / bframes=4 / b-adapt=2 / b-pyramid / bframe-bias=0 / rc-lookahead=20 / lookahead-slices=5 / scenecut=40 / radl=0 / no-intra-refresh / ctu=32 / min-cu-size=8 / no-rect / no-amp / max-tu-size=32 / tu-inter-depth=1 / tu-intra-depth=1 / limit-tu=0 / rdoq-level=0 / dynamic-rd=0.00 / no-ssim-rd / signhide / no-tskip / nr-intra=0 / nr-inter=0 / no-constrained-intra / no-strong-intra-smoothing / max-merge=2 / limit-refs=0 / no-limit-modes / me=2 / subme=5 / merange=32 / temporal-mvp / weightp / no-weightb / no-analyze-src-pics / deblock=-3:-3 / no-sao / no-sao-non-deblock / rd=3 / no-early-skip / rskip / no-fast-intra / no-tskip-fast / no-cu-lossless / no-b-intra / no-splitrd-skip / rdpenalty=0 / psy-rd=2.00 / psy-rdoq=0.00 / no-rd-refine / no-lossless / cbqpoffs=0 / crqpoffs=0 / rc=crf / crf=17.0 / qcomp=0.60 / qpstep=4 / stats-write=0 / stats-read=0 / vbv-maxrate=50000 / vbv-bufsize=50000 / vbv-init=0.9 / crf-max=0.0 / crf-min=0.0 / ipratio=1.40 / pbratio=1.30 / aq-mode=1 / aq-strength=1.00 / cutree / zone-count=0 / no-strict-cbr / qg-size=32 / no-rc-grain / qpmax=69 / qpmin=0 / no-const-vbv / sar=0 / overscan=0 / videoformat=5 / range=0 / colorprim=1 / transfer=1 / colormatrix=1 / chromaloc=0 / display-window=0 / max-cll=0,0 / min-luma=0 / max-luma=1023 / log2-max-poc-lsb=8 / vui-timing-info / vui-hrd-info / slices=1 / no-opt-qp-pps / no-opt-ref-list-length-pps / no-multi-pass-opt-rps / scenecut-bias=0.05 / no-opt-cu-delta-qp / no-aq-motion / no-hdr / no-hdr-opt / no-dhdr10-opt / no-idr-recovery-sei / analysis-reuse-level=5 / scale-factor=0 / refine-intra=0 / refine-inter=0 / refine-mv=0 / no-limit-sao / ctu-info=0 / no-lowpass-dct / refine-mv-type=0 / copy-pic=1 / max-ausize-factor=1.0 / no-dynamic-refine / no-single-sei
Language                                 : English
Default                                  : Yes
Forced                                   : No
Color range                              : Limited
Color primaries                          : BT.709
Transfer characteristics                 : BT.709
Matrix coefficients                      : BT.709

Audio #1
ID                                       : 2
Format                                   : AC-3
Format/Info                              : Audio Coding 3
Codec ID                                 : A_AC3
Duration                                 : 2 h 21 min
Bit rate mode                            : Constant
Bit rate                                 : 448 kb/s
Channel(s)                               : 6 channels
Channel positions                        : Front: L C R, Side: L R, LFE
Sampling rate                            : 48.0 kHz
Frame rate                               : 31.250 FPS (1536 SPF)
Bit depth                                : 16 bits
Compression mode                         : Lossy
Stream size                              : 454 MiB (6%)
Title                                    : ПД - Blu-Ray
Language                                 : Ukrainian
Service kind                             : Complete Main
Default                                  : Yes
Forced                                   : Yes

Audio #2
ID                                       : 3
Format                                   :
Format/Info                              : Digital Theater Systems
Format profile                           : ES Matrix / Core
Codec ID                                 : A_DTS
Duration                                 : 2 h 21 min
Bit rate mode                            : Constant
Bit rate                                 : 1 509 kb/s
Channel(s)                               : 7 channels / 6 channels
Channel positions                        : Front: L C R, Side: L R, Back: C, LFE / Front: L C R, Side: L R, LFE
Sampling rate                            : 48.0 kHz
Frame rate                               : 93.750 FPS (512 SPF)
Bit depth                                : 24 bits
Compression mode                         : Lossy
Stream size                              : 1.49 GiB (19%)
Title                                    : Original
Language                                 : English
Default                                  : No
Forced                                   : No

Text #1
ID                                       : 4
Format                                   : UTF-8
Codec ID                                 : S_TEXT/UTF8
Codec ID/Info                            : UTF-8 Plain Text
Duration                                 : 2 h 11 min
Bit rate                                 : 0 b/s
Count of elements                        : 14
Stream size                              : 525 Bytes (0%)
Title                                    : Forced
Language                                 : Ukrainian
Default                                  : Yes
Forced                                   : Yes

Text #2
ID                                       : 5
Format                                   : UTF-8
Codec ID                                 : S_TEXT/UTF8
Codec ID/Info                            : UTF-8 Plain Text
Duration                                 : 2 h 17 min
Bit rate                                 : 51 b/s
Count of elements                        : 1323
Stream size                              : 51.7 KiB (0%)
Title                                    : Full
Language                                 : Ukrainian
Default                                  : No
Forced                                   : No

Text #3
ID                                       : 6
Format                                   : UTF-8
Codec ID                                 : S_TEXT/UTF8
Codec ID/Info                            : UTF-8 Plain Text
Duration                                 : 2 h 13 min
Bit rate                                 : 41 b/s
Count of elements                        : 1467
Stream size                              : 40.5 KiB (0%)
Title                                    : Full
Language                                 : English
Default                                  : No
Forced                                   : No

Text #4
ID                                       : 7
Format                                   : UTF-8
Codec ID                                 : S_TEXT/UTF8
Codec ID/Info                            : UTF-8 Plain Text
Duration                                 : 2 h 18 min
Bit rate                                 : 45 b/s
Count of elements                        : 1711
Stream size                              : 46.2 KiB (0%)
Title                                    : SDH
Language                                 : English
Default                                  : No
Forced                                   : No

Menu
00:00:00.000                             : :Chapter 01
00:04:19.592                             : :Chapter 02
00:19:21.994                             : :Chapter 03
00:34:32.737                             : :Chapter 04
00:49:24.711                             : :Chapter 05
00:51:19.868                             : :Chapter 06
01:16:01.473                             : :Chapter 07
01:37:13.369                             : :Chapter 08
02:03:56.720                             : :Chapter 09
02:14:09.041                             : :Chapter 10
02:15:45.428                             : :Chapter 11
Світлини





Джерело: &
Особиста оцінка: 0 - не дивився


 Трекер:    Зареєстрований   

Завантажити / скачати фільм українською



відео для новачків



 Зареєстрований:   2019-02-07 20:20
 Розмір:   7.85 GB 
 Оцінка фільму:   9.1/10 (Голосів: 7)
   
Ваш часовий пояс: GMT + 2 Години

Нова тема   Відповісти