Монстро / Cloverfield (2008) mini 1080p H.265 Ukr/Eng | Sub Ukr/Eng

Нові коментарі

Нова тема   Відповісти
Автор Повідомлення
-Star-Lord- 
VIP


З нами з: 09.08.18
Востаннє: 23.04.19
Повідомлень: 737

2019-02-07 18:35  
Монстро / Cloverfield (2008) mini 1080p H.265 Ukr/Eng | Sub Ukr/Eng

Монстро / Cloverfield (2008) mini 1080p H.265 Ukr/Eng | Sub Ukr/Eng


Жанр: фантастика, трилер, жахи
Країна: США
Кінокомпанія: Paramount Pictures
Режисер: Метт Рівз
Актори: Ліззі Кеплен, Джесіка Лукас, Майкл Стал-Девід, Майкл Фогель, Ті Джей Міллер, Одет Юстман, Брін Клугман

Сюжет:
Розповідь ведеться від імені звичайних жителів Нью-Йорка, на яких напав жахливий монстр, і які знімають все, що відбувається на домашню відеокамеру.

Тривалість: 01:24:40
Якість: mini
Відео:
кодек: H.265 (HEVC)
розмір кадру: 1920 x 1080
бітрейт: 4 691 кб/с
бітова глибина: 10 біт
Увага! Перед завантаженням переконайтесь, що ваш пристрій відтворення (та/або ПЗ) підтримує H.265 (HEVC)

Аудіо # 1:
мова: українська
переклад: професійний дубльований
кодек: AC-3 5.1
бітрейт: 448 кб/с

Аудіо # 2:
мова: англійська
переклад: оригінал
кодек: AC-3 5.1
бітрейт: 448 кб/с

Субтитри # 1:
мова: українська (Forced),
тип: програмні (м'які)
формат: *.srt

Субтитри # 2:
мова: українська (Full),
тип: програмні (м'які)
формат: *.srt

Субтитри # 3:
мова: англійська (Full),
тип: програмні (м'які)
формат: *.srt


Info
Код:
General
Unique ID                                : 338203909491494765392387312183588404837 (0xFE6FB4230D4B5EDB177571F47B37BE65)
Complete name                            : F:\Video\Films\Cloverfield (2008) 1080p H.265 [UKR_ENG].
Format                                   :
Format version                           : Version 4 / Version 2
File size                                : 3.31 GiB
Duration                                 : 1 h 24 min
Overall bit rate                         : 5 591 kb/s
Movie name                               : Cloverfield (2008)
Encoded date                             : UTC 2019-02-07 08:57:29
Writing application                      : v20.0.0 ('I Am The Sun') 64-bit
Writing library                          : libebml v1.3.5 + v1.4.8
Cover                                    : Yes
Attachments                              : cover.jpg

Video
ID                                       : 1
Format                                   : HEVC
Format/Info                              : High Efficiency Video Coding
Format profile                           : Main [email protected]@Main
Codec ID                                 : V_MPEGH/ISO/HEVC
Duration                                 : 1 h 24 min
Bit rate                                 : 4 691 kb/s
Width                                    : 1 920 pixels
Height                                   : 1 080 pixels
Display aspect ratio                     : 16:9
Frame rate mode                          : Constant
Frame rate                               : 23.976 (24000/1001) FPS
Color space                              : YUV
Chroma subsampling                       : 4:2:0
Bit depth                                : 10 bits
Bits/(Pixel*Frame)                       : 0.094
Stream size                              : 2.77 GiB (84%)
Title                                    : Cloverfield (2008)
Writing library                          : x265 3.0+1-ed72af837053:[Windows][MSVC 1900][64 bit] 10bit
Encoding settings                        : cpuid=1111039 / frame-threads=4 / numa-pools=16 / wpp / no-pmode / no-pme / no-psnr / no-ssim / log-level=2 / input-csp=1 / input-res=1920x1080 / interlace=0 / total-frames=121811 / level-idc=0 / high-tier=1 / uhd-bd=0 / ref=5 / no-allow-non-conformance / no-repeat-headers / annexb / no-aud / no-hrd / info / hash=0 / no-temporal-layers / open-gop / min-keyint=23 / keyint=250 / gop-lookahead=0 / bframes=8 / b-adapt=2 / b-pyramid / bframe-bias=0 / rc-lookahead=80 / lookahead-slices=4 / scenecut=40 / radl=0 / no-splice / no-intra-refresh / ctu=64 / min-cu-size=8 / no-rect / no-amp / max-tu-size=32 / tu-inter-depth=1 / tu-intra-depth=1 / limit-tu=0 / rdoq-level=2 / dynamic-rd=0.00 / no-ssim-rd / signhide / no-tskip / nr-intra=0 / nr-inter=0 / no-constrained-intra / no-strong-intra-smoothing / max-merge=3 / limit-refs=3 / limit-modes / me=3 / subme=5 / merange=57 / temporal-mvp / weightp / no-weightb / no-analyze-src-pics / deblock=-3:-3 / no-sao / no-sao-non-deblock / rd=4 / no-early-skip / rskip / no-fast-intra / no-tskip-fast / no-cu-lossless / no-b-intra / no-splitrd-skip / rdpenalty=0 / psy-rd=2.00 / psy-rdoq=1.00 / no-rd-refine / no-lossless / cbqpoffs=0 / crqpoffs=0 / rc=abr / bitrate=4700 / qcomp=0.60 / qpstep=4 / stats-write=0 / stats-read=2 / cplxblur=20.0 / qblur=0.5 / ipratio=1.40 / pbratio=1.30 / aq-mode=3 / aq-strength=1.00 / cutree / zone-count=0 / no-strict-cbr / qg-size=32 / no-rc-grain / qpmax=69 / qpmin=0 / no-const-vbv / sar=0 / overscan=0 / videoformat=5 / range=0 / colorprim=2 / transfer=2 / colormatrix=2 / chromaloc=0 / display-window=0 / max-cll=0,0 / min-luma=0 / max-luma=1023 / log2-max-poc-lsb=8 / vui-timing-info / vui-hrd-info / slices=1 / no-opt-qp-pps / no-opt-ref-list-length-pps / no-multi-pass-opt-rps / scenecut-bias=0.05 / no-opt-cu-delta-qp / no-aq-motion / no-hdr / no-hdr-opt / no-dhdr10-opt / no-idr-recovery-sei / analysis-reuse-level=5 / scale-factor=0 / refine-intra=0 / refine-inter=0 / refine-mv=0 / refine-ctu-distortion=0 / no-limit-sao / ctu-info=0 / no-lowpass-dct / refine-analysis-type=0 / copy-pic=1 / max-ausize-factor=1.0 / no-dynamic-refine / no-single-sei / no-hevc-aq / qp-adaptation-range=1.00
Default                                  : Yes
Forced                                   : No

Audio #1
ID                                       : 2
Format                                   : AC-3
Format/Info                              : Audio Coding 3
Codec ID                                 : A_AC3
Duration                                 : 1 h 24 min
Bit rate mode                            : Constant
Bit rate                                 : 448 kb/s
Channel(s)                               : 6 channels
Channel positions                        : Front: L C R, Side: L R, LFE
Sampling rate                            : 48.0 kHz
Frame rate                               : 31.250 FPS (1536 SPF)
Bit depth                                : 16 bits
Compression mode                         : Lossy
Stream size                              : 271 MiB (8%)
Title                                    : ПД
Language                                 : Ukrainian
Service kind                             : Complete Main
Default                                  : Yes
Forced                                   : Yes

Audio #2
ID                                       : 3
Format                                   : AC-3
Format/Info                              : Audio Coding 3
Codec ID                                 : A_AC3
Duration                                 : 1 h 24 min
Bit rate mode                            : Constant
Bit rate                                 : 448 kb/s
Channel(s)                               : 6 channels
Channel positions                        : Front: L C R, Side: L R, LFE
Sampling rate                            : 48.0 kHz
Frame rate                               : 31.250 FPS (1536 SPF)
Bit depth                                : 16 bits
Compression mode                         : Lossy
Stream size                              : 271 MiB (8%)
Title                                    : Original
Language                                 : English
Service kind                             : Complete Main
Default                                  : No
Forced                                   : No

Text #1
ID                                       : 4
Format                                   : UTF-8
Codec ID                                 : S_TEXT/UTF8
Codec ID/Info                            : UTF-8 Plain Text
Duration                                 : 1 h 12 min
Bit rate                                 : 0 b/s
Count of elements                        : 13
Stream size                              : 539 Bytes (0%)
Title                                    : Forced
Language                                 : Ukrainian
Default                                  : Yes
Forced                                   : Yes

Text #2
ID                                       : 5
Format                                   : UTF-8
Codec ID                                 : S_TEXT/UTF8
Codec ID/Info                            : UTF-8 Plain Text
Duration                                 : 1 h 12 min
Bit rate                                 : 135 b/s
Count of elements                        : 1192
Stream size                              : 72.1 KiB (0%)
Title                                    : Full
Language                                 : Ukrainian
Default                                  : No
Forced                                   : No

Text #3
ID                                       : 6
Format                                   : UTF-8
Codec ID                                 : S_TEXT/UTF8
Codec ID/Info                            : UTF-8 Plain Text
Duration                                 : 47 min 12 s
Bit rate                                 : 94 b/s
Count of elements                        : 813
Stream size                              : 32.5 KiB (0%)
Title                                    : Full
Language                                 : English
Default                                  : No
Forced                                   : No

Menu
00:00:00.000                             : en:Chapter 01
00:05:03.303                             : en:Chapter 02
00:09:41.372                             : en:Chapter 03
00:15:01.984                             : en:Chapter 04
00:19:25.831                             : en:Chapter 05
00:24:21.835                             : en:Chapter 06
00:29:22.719                             : en:Chapter 07
00:33:35.388                             : en:Chapter 08
00:36:22.638                             : en:Chapter 09
00:41:25.274                             : en:Chapter 10
00:45:28.434                             : en:Chapter 11
00:49:15.786                             : en:Chapter 12
00:53:34.544                             : en:Chapter 13
00:59:08.169                             : en:Chapter 14
01:06:55.177                             : en:Chapter 15
01:13:44.044                             : en:Chapter 16
Світлини





Джерело: &
Особиста оцінка: 0 - не дивився


 Трекер:    Зареєстрований   

Завантажити / скачати фільм українською



відео для новачків



 Зареєстрований:   2019-02-07 18:35
 Розмір:   3.31 GB 
 Оцінка фільму:   6.5/10 (Голосів: 6)
   
Інші релізи
   Монстро / Cloverfield (2008) Ukr/Eng | Sub Ukr/Eng DemsOFF  6 / 1   1.72 GB   2010-03-10 20:27 
   Монстро / Cloverfield (2008) 1080p lex  6 / 0   7.83 GB   2009-11-04 22:03 
vash1 
Поважний учасник


З нами з: 16.03.16
Востаннє: 23.04.19
Повідомлень: 187

2019-02-07 19:05  
фільм в свій час справив незабутнє враження. ефект присутності колосальний. ходив тричі в кіно 10 років тому.
Ваш часовий пояс: GMT + 2 Години

Нова тема   Відповісти