Агент Джонні Інгліш. Трилогія / Johnny English. Trilogy (2003-2018) 1080p H.265 2xUkr/Eng | Sub Eng

Нові коментарі

Нова тема   Відповісти
Автор Повідомлення
-Star-Lord- 
VIP


З нами з: 09.08.18
Востаннє: 19.04.19
Повідомлень: 736

2019-02-07 17:06  
Агент Джонні Інгліш. Трилогія / Johnny English. Trilogy (2003-2018) 1080p H.265 2xUkr/Eng | Sub Eng

Агент Джонні Інгліш. Трилогія / Johnny English. Trilogy (2003-2018) 1080p H.265 2xUkr/Eng | Sub Eng

1. 2. 3.

Увага! Перед завантаженням переконайтесь, що ваш пристрій відтворення (та/або ПЗ) підтримує H.265 (HEVC)

1. Агент Джонні Інгліш / Johnny English (2003) 1080p H.265 2xUkr/Eng | Sub Eng
Агент Джонні Інгліш / Johnny English (2003) 1080p H.265 2xUkr/Eng | Sub Eng

Агент Джонні Інгліш. Трилогія / Johnny English. Trilogy (2003-2018) 1080p H.265 2xUkr/Eng | Sub Eng


Жанр: комедія, бойовик
Країна: США, Велика Британія, Франція
Режисер: Пітер Говітт
Актори: Ровен Аткінсон, Бен Міллер, Грег Вайз, Дуглас МакФерран
Кінокомпанія: Universal Pictures, StudioCanal, Working Title Films

Сюжет:
Агент англійської розвідки Джонні Інгліш (Ровен Аткінсон), приставлений як охорона до головної реліквії країни – інкрустованої діамантами корони, не може перешкодити спритним грабіжникам вкрасти її прямо з-під власного носа. Але наш герой не здається і береться за розслідування, переконаний, що тут не обійшлося без участі французького бізнесмена Паскаля Саважа. Передчуття його не одурює – за всім стоїть саме Саваж, що виношує хитромудрий план стати королем Англії, щоб перетворити її на величезну в'язницю. Інгліш радий би перешкодити лиходієві, але його хронічна незграбність сильно ускладнює завдання.

Тривалість: 01:27:25
Якість:
Відео:
кодек: H.265 (HEVC)
розмір кадру: 1916 x 1040
бітрейт: 10 221 кб/с
бітова глибина: 10 біт
Увага! Перед завантаженням переконайтесь, що ваш пристрій відтворення (та/або ПЗ) підтримує H.265 (HEVC)

Аудіо # 1:
мова: українська
переклад: багатоголосий закадровий
кодек: AC-3 2.0
бітрейт: 192 кб/с

Аудіо # 2:
мова: українська
переклад: багатоголосий закадровий
кодек: AC-3 2.0
бітрейт: 192 кб/с

Аудіо # 3:
мова: англійська
переклад: оригінал
кодек: AC-3 5.1
бітрейт: 640 кб/с

Субтитри # 1:
мова: англійська (Full),
тип: програмні (м'які)
формат: *.srt


Info
Код:
General
Unique ID                                : 284922359319366518691032085288224531991 (0xD65A0CE4A567734550CD85989FCFA617)
Complete name                            : F:\Video\Films\Johnny English. Trilogy (2003-2018) 1080p H.265 [UKR_ENG]\1. Johnny English (2003) 1080p H.265 [2xUKR_ENG].
Format                                   :
Format version                           : Version 4 / Version 2
File size                                : 6.87 GiB
Duration                                 : 1 h 27 min
Overall bit rate                         : 11.2 Mb/s
Movie name                               : Johnny English (2003)
Encoded date                             : UTC 2019-01-30 10:47:51
Writing application                      : v20.0.0 ('I Am The Sun') 64-bit
Writing library                          : libebml v1.3.5 + v1.4.8
Cover                                    : Yes
Attachments                              : cover.jpg

Video
ID                                       : 1
Format                                   : HEVC
Format/Info                              : High Efficiency Video Coding
Format profile                           : Main [email protected]@High
Codec ID                                 : V_MPEGH/ISO/HEVC
Duration                                 : 1 h 27 min
Bit rate                                 : 10.2 Mb/s
Width                                    : 1 916 pixels
Height                                   : 1 040 pixels
Display aspect ratio                     : 1.85:1
Frame rate mode                          : Constant
Frame rate                               : 23.976 (24000/1001) FPS
Color space                              : YUV
Chroma subsampling                       : 4:2:0
Bit depth                                : 10 bits
Bits/(Pixel*Frame)                       : 0.214
Stream size                              : 6.24 GiB (91%)
Title                                    : Johnny English (2003)
Writing library                          : x265 2.9+9-f74003e88622:[Mac OS X][clang 10.0.0][64 bit] 10bit
Encoding settings                        : cpuid=1111039 / frame-threads=14 / wpp / no-pmode / no-pme / no-psnr / no-ssim / log-level=3 / input-csp=1 / input-res=1916x1040 / interlace=0 / total-frames=0 / level-idc=51 / high-tier=1 / uhd-bd=0 / ref=5 / allow-non-conformance / no-repeat-headers / annexb / no-aud / no-hrd / info / hash=0 / no-temporal-layers / open-gop / min-keyint=23 / keyint=240 / gop-lookahead=0 / bframes=14 / b-adapt=2 / b-pyramid / bframe-bias=0 / rc-lookahead=60 / lookahead-slices=6 / scenecut=40 / radl=0 / no-intra-refresh / ctu=64 / min-cu-size=8 / rect / amp / max-tu-size=32 / tu-inter-depth=4 / tu-intra-depth=4 / limit-tu=1 / rdoq-level=2 / dynamic-rd=0.00 / no-ssim-rd / signhide / no-tskip / nr-intra=0 / nr-inter=0 / no-constrained-intra / no-strong-intra-smoothing / max-merge=5 / limit-refs=2 / no-limit-modes / me=3 / subme=7 / merange=57 / temporal-mvp / weightp / weightb / no-analyze-src-pics / deblock=-3:-3 / no-sao / no-sao-non-deblock / rd=6 / no-early-skip / rskip / no-fast-intra / no-tskip-fast / no-cu-lossless / no-b-intra / no-splitrd-skip / rdpenalty=0 / psy-rd=2.00 / psy-rdoq=1.00 / no-rd-refine / no-lossless / cbqpoffs=0 / crqpoffs=0 / rc=crf / crf=18.5 / qcomp=0.60 / qpstep=4 / stats-write=0 / stats-read=0 / vbv-maxrate=90000 / vbv-bufsize=90000 / vbv-init=0.9 / crf-max=0.0 / crf-min=0.0 / ipratio=1.40 / pbratio=1.30 / aq-mode=2 / aq-strength=0.80 / cutree / zone-count=0 / no-strict-cbr / qg-size=32 / no-rc-grain / qpmax=69 / qpmin=0 / no-const-vbv / sar=1 / overscan=0 / videoformat=5 / range=0 / colorprim=2 / transfer=2 / colormatrix=2 / chromaloc=0 / display-window=0 / max-cll=0,0 / min-luma=0 / max-luma=1023 / log2-max-poc-lsb=8 / vui-timing-info / vui-hrd-info / slices=1 / no-opt-qp-pps / no-opt-ref-list-length-pps / no-multi-pass-opt-rps / scenecut-bias=0.00 / no-opt-cu-delta-qp / aq-motion / no-hdr / no-hdr-opt / no-dhdr10-opt / no-idr-recovery-sei / analysis-reuse-level=5 / scale-factor=0 / refine-intra=0 / refine-inter=0 / refine-mv=0 / no-limit-sao / ctu-info=0 / no-lowpass-dct / refine-mv-type=0 / copy-pic=1 / max-ausize-factor=1.0 / no-dynamic-refine / no-single-sei
Default                                  : Yes
Forced                                   : No

Audio #1
ID                                       : 2
Format                                   : AC-3
Format/Info                              : Audio Coding 3
Codec ID                                 : A_AC3
Duration                                 : 1 h 27 min
Bit rate mode                            : Constant
Bit rate                                 : 192 kb/s
Channel(s)                               : 2 channels
Channel positions                        : Front: L R
Sampling rate                            : 48.0 kHz
Frame rate                               : 31.250 FPS (1536 SPF)
Bit depth                                : 16 bits
Compression mode                         : Lossy
Stream size                              : 120 MiB (2%)
Title                                    : БЗ - NLO
Language                                 : Ukrainian
Service kind                             : Complete Main
Default                                  : Yes
Forced                                   : Yes

Audio #2
ID                                       : 3
Format                                   : AC-3
Format/Info                              : Audio Coding 3
Codec ID                                 : A_AC3
Duration                                 : 1 h 27 min
Bit rate mode                            : Constant
Bit rate                                 : 192 kb/s
Channel(s)                               : 2 channels
Channel positions                        : Front: L R
Sampling rate                            : 48.0 kHz
Frame rate                               : 31.250 FPS (1536 SPF)
Bit depth                                : 16 bits
Compression mode                         : Lossy
Stream size                              : 120 MiB (2%)
Title                                    : БЗ - ICTV
Language                                 : Ukrainian
Service kind                             : Complete Main
Default                                  : No
Forced                                   : No

Audio #3
ID                                       : 4
Format                                   : AC-3
Format/Info                              : Audio Coding 3
Codec ID                                 : A_AC3
Duration                                 : 1 h 27 min
Bit rate mode                            : Constant
Bit rate                                 : 640 kb/s
Channel(s)                               : 6 channels
Channel positions                        : Front: L C R, Side: L R, LFE
Sampling rate                            : 48.0 kHz
Frame rate                               : 31.250 FPS (1536 SPF)
Bit depth                                : 16 bits
Compression mode                         : Lossy
Stream size                              : 400 MiB (6%)
Title                                    : Original
Language                                 : English
Service kind                             : Complete Main
Default                                  : No
Forced                                   : No

Text
ID                                       : 5
Format                                   : UTF-8
Codec ID                                 : S_TEXT/UTF8
Codec ID/Info                            : UTF-8 Plain Text
Duration                                 : 1 h 24 min
Bit rate                                 : 66 b/s
Count of elements                        : 1210
Stream size                              : 41.3 KiB (0%)
Title                                    : Full
Language                                 : English
Default                                  : Yes
Forced                                   : No

Menu
00:00:00.000                             : :00:00:00.000
00:03:55.318                             : :00:03:55.318
00:08:12.867                             : :00:08:12.867
00:14:05.094                             : :00:14:05.094
00:17:51.404                             : :00:17:51.404
00:22:31.600                             : :00:22:31.600
00:26:45.729                             : :00:26:45.729
00:33:33.678                             : :00:33:33.678
00:39:12.433                             : :00:39:12.433
00:46:41.674                             : :00:46:41.674
00:49:05.734                             : :00:49:05.734
00:54:09.913                             : :00:54:09.913
00:57:37.746                             : :00:57:37.746
01:02:20.320                             : :01:02:20.320
01:04:59.020                             : :01:04:59.020
01:08:55.298                             : :01:08:55.298
01:13:08.384                             : :01:13:08.384
01:18:03.637                             : :01:18:03.637
01:21:19.708                             : :01:21:19.708
01:22:56.305                             : :01:22:56.305
Світлини



2. Агент Джонні Інгліш: Перезапуск / Агент Джонні Інгліш: Перезавантаження / Johnny English Reborn (2011) 1080p H.265 2xUkr/Eng | Sub Eng
Агент Джонні Інгліш: Перезапуск / Агент Джонні Інгліш: Перезавантаження / Johnny English Reborn (2011) 1080p H.265 2xUkr/Eng | Sub Eng

Агент Джонні Інгліш. Трилогія / Johnny English. Trilogy (2003-2018) 1080p H.265 2xUkr/Eng | Sub Eng


Жанр: комедія, бойовик
Країна: США
Кінокомпанія: Universal Studios
Режисер: Олівер Паркер
Актори: Роуен Аткінсон (Rowan Atkinson), Джилліан Андерсон (Gillian Anderson), Розамунд Пайк (Rosamund Pike), Домінік Уест (Dominic West), Деніел Калуя (Daniel Kaluuya), Ерік Карт (Eric Carte) та інші

Сюжет:
Англійський спецагент – класика жанру, Роуен Аткінсон – класика гумору. Вірний підданий королеві виходить на міжнародний рівень. Англія потребує захисту і без свого героя не обійтись, тож зволікати не можна, Джонні Інгліш налаштований рішуче! Сподіваємось, що він не перечепиться через поріг, коли буде стрімко вилітати з будинку.
Дія фільму розвертається через вісім років після подій попереднього фільму, і з тих пір кар'єра сера Джонні Інгліша йде на спад. Після того, як агент провалив місію в Мозамбік, він живе в печері в горах Тибету, ховаючись від всіх через сором і обвинувачення. Але йому дають ще один шанс. Британська розвідка знов потребує його, і їй треба повернути агента, щоб той зірвав змову групи кілерів, які планують вбити китайського прем'єр-міністра.

Тривалість: 01:41:21
Якість:
Відео:
кодек: H.265 (HEVC)
розмір кадру: 1920 x 800
бітрейт: 4 386 кб/с
бітова глибина: 10 біт
Увага! Перед завантаженням переконайтесь, що ваш пристрій відтворення (та/або ПЗ) підтримує H.265 (HEVC)

Аудіо # 1:
мова: українська
переклад: багатоголосий закадровий
кодек: AC-3 2.0
бітрейт: 192 кб/с

Аудіо # 2:
мова: українська
переклад: професійний дубльований
кодек: AC-3 2.0
бітрейт: 192 кб/с

Аудіо # 3:
мова: англійська
переклад: оригінал
кодек: AC-3 5.1
бітрейт: 448 кб/с

Субтитри # 1:
мова: англійська (Full),
тип: програмні (м'які)
формат: *.srt


Info
Код:
General
Unique ID                                : 162469134837046061927595933259639789944 (0x7A3A6ACC72CC35ABEF303EBA8FE79978)
Complete name                            : F:\Video\Films\Johnny English. Trilogy (2003-2018) 1080p H.265 [UKR_ENG]\2. Johnny English Reborn (2011) 1080p H.265 [2xUKR_ENG].
Format                                   :
Format version                           : Version 4 / Version 2
File size                                : 3.70 GiB
Duration                                 : 1 h 41 min
Overall bit rate                         : 5 220 kb/s
Movie name                               : Johnny English. Reborn (2011)
Encoded date                             : UTC 2019-01-30 10:56:24
Writing application                      : v20.0.0 ('I Am The Sun') 64-bit
Writing library                          : libebml v1.3.5 + v1.4.8
Cover                                    : Yes
Attachments                              : cover1.jpg

Video
ID                                       : 1
Format                                   : HEVC
Format/Info                              : High Efficiency Video Coding
Format profile                           : Main [email protected]@High
Codec ID                                 : V_MPEGH/ISO/HEVC
Duration                                 : 1 h 41 min
Bit rate                                 : 4 386 kb/s
Width                                    : 1 920 pixels
Height                                   : 800 pixels
Display aspect ratio                     : 2.40:1
Frame rate mode                          : Constant
Frame rate                               : 23.976 (24000/1001) FPS
Color space                              : YUV
Chroma subsampling                       : 4:2:0
Bit depth                                : 10 bits
Bits/(Pixel*Frame)                       : 0.119
Stream size                              : 3.11 GiB (84%)
Title                                    : Johnny English. Reborn (2011)
Writing library                          : x265 2.9+9-f74003e88622:[Mac OS X][clang 10.0.0][64 bit] 10bit
Encoding settings                        : cpuid=1111039 / frame-threads=14 / wpp / no-pmode / no-pme / no-psnr / no-ssim / log-level=3 / input-csp=1 / input-res=1920x800 / interlace=0 / total-frames=0 / level-idc=51 / high-tier=1 / uhd-bd=0 / ref=5 / allow-non-conformance / no-repeat-headers / annexb / no-aud / no-hrd / info / hash=0 / no-temporal-layers / open-gop / min-keyint=23 / keyint=240 / gop-lookahead=0 / bframes=13 / b-adapt=2 / b-pyramid / bframe-bias=0 / rc-lookahead=60 / lookahead-slices=5 / scenecut=40 / radl=0 / no-intra-refresh / ctu=64 / min-cu-size=8 / rect / amp / max-tu-size=32 / tu-inter-depth=4 / tu-intra-depth=4 / limit-tu=1 / rdoq-level=2 / dynamic-rd=0.00 / no-ssim-rd / signhide / no-tskip / nr-intra=0 / nr-inter=0 / no-constrained-intra / no-strong-intra-smoothing / max-merge=5 / limit-refs=2 / no-limit-modes / me=3 / subme=7 / merange=57 / temporal-mvp / weightp / weightb / no-analyze-src-pics / deblock=-3:-3 / no-sao / no-sao-non-deblock / rd=6 / no-early-skip / rskip / no-fast-intra / no-tskip-fast / no-cu-lossless / no-b-intra / no-splitrd-skip / rdpenalty=0 / psy-rd=2.00 / psy-rdoq=1.00 / no-rd-refine / no-lossless / cbqpoffs=0 / crqpoffs=0 / rc=crf / crf=18.0 / qcomp=0.60 / qpstep=4 / stats-write=0 / stats-read=0 / vbv-maxrate=90000 / vbv-bufsize=90000 / vbv-init=0.9 / crf-max=0.0 / crf-min=0.0 / ipratio=1.40 / pbratio=1.30 / aq-mode=2 / aq-strength=0.80 / cutree / zone-count=0 / no-strict-cbr / qg-size=32 / no-rc-grain / qpmax=69 / qpmin=0 / no-const-vbv / sar=1 / overscan=0 / videoformat=5 / range=0 / colorprim=2 / transfer=2 / colormatrix=2 / chromaloc=0 / display-window=0 / max-cll=0,0 / min-luma=0 / max-luma=1023 / log2-max-poc-lsb=8 / vui-timing-info / vui-hrd-info / slices=1 / no-opt-qp-pps / no-opt-ref-list-length-pps / no-multi-pass-opt-rps / scenecut-bias=0.00 / no-opt-cu-delta-qp / aq-motion / no-hdr / no-hdr-opt / no-dhdr10-opt / no-idr-recovery-sei / analysis-reuse-level=5 / scale-factor=0 / refine-intra=0 / refine-inter=0 / refine-mv=0 / no-limit-sao / ctu-info=0 / no-lowpass-dct / refine-mv-type=0 / copy-pic=1 / max-ausize-factor=1.0 / no-dynamic-refine / no-single-sei
Language                                 : English
Default                                  : Yes
Forced                                   : No

Audio #1
ID                                       : 2
Format                                   : AC-3
Format/Info                              : Audio Coding 3
Codec ID                                 : A_AC3
Duration                                 : 1 h 41 min
Bit rate mode                            : Constant
Bit rate                                 : 192 kb/s
Channel(s)                               : 2 channels
Channel positions                        : Front: L R
Sampling rate                            : 48.0 kHz
Frame rate                               : 31.250 FPS (1536 SPF)
Bit depth                                : 16 bits
Compression mode                         : Lossy
Stream size                              : 139 MiB (4%)
Title                                    : БЗ - NLO, ICTV
Language                                 : Ukrainian
Service kind                             : Complete Main
Default                                  : Yes
Forced                                   : Yes

Audio #2
ID                                       : 3
Format                                   : AC-3
Format/Info                              : Audio Coding 3
Codec ID                                 : A_AC3
Duration                                 : 1 h 41 min
Bit rate mode                            : Constant
Bit rate                                 : 192 kb/s
Channel(s)                               : 2 channels
Channel positions                        : Front: L R
Sampling rate                            : 48.0 kHz
Frame rate                               : 31.250 FPS (1536 SPF)
Bit depth                                : 16 bits
Compression mode                         : Lossy
Stream size                              : 139 MiB (4%)
Title                                    : ПД - Line
Language                                 : Ukrainian
Service kind                             : Complete Main
Default                                  : No
Forced                                   : No

Audio #3
ID                                       : 4
Format                                   : AC-3
Format/Info                              : Audio Coding 3
Codec ID                                 : A_AC3
Duration                                 : 1 h 41 min
Bit rate mode                            : Constant
Bit rate                                 : 448 kb/s
Channel(s)                               : 6 channels
Channel positions                        : Front: L C R, Side: L R, LFE
Sampling rate                            : 48.0 kHz
Frame rate                               : 31.250 FPS (1536 SPF)
Bit depth                                : 16 bits
Compression mode                         : Lossy
Stream size                              : 325 MiB (9%)
Title                                    : Original
Language                                 : English
Service kind                             : Complete Main
Default                                  : No
Forced                                   : No

Text
ID                                       : 5
Format                                   : UTF-8
Codec ID                                 : S_TEXT/UTF8
Codec ID/Info                            : UTF-8 Plain Text
Duration                                 : 1 h 38 min
Bit rate                                 : 43 b/s
Count of elements                        : 1034
Stream size                              : 31.6 KiB (0%)
Title                                    : Full
Language                                 : English
Default                                  : Yes
Forced                                   : No

Menu
00:00:00.000                             : :Chapter 01
00:05:39.464                             : :Chapter 02
00:09:06.921                             : :Chapter 03
00:13:00.362                             : :Chapter 04
00:15:28.552                             : :Chapter 05
00:18:44.790                             : :Chapter 06
00:25:35.784                             : :Chapter 07
00:33:09.654                             : :Chapter 08
00:37:35.336                             : :Chapter 09
00:46:32.414                             : :Chapter 10
00:49:09.112                             : :Chapter 11
00:55:58.229                             : :Chapter 12
01:01:22.345                             : :Chapter 13
01:05:00.563                             : :Chapter 14
01:11:47.761                             : :Chapter 15
01:15:24.061                             : :Chapter 16
01:20:28.365                             : :Chapter 17
01:28:18.376                             : :Chapter 18
01:33:02.493                             : :Chapter 19
01:35:07.076                             : :Chapter 20
Світлини



3. Агент Джонні Інгліш: Нова місія / Johnny English Strikes Again (2018) 1080p H.265 Ukr/Eng | Sub Eng
Агент Джонні Інгліш: Нова місія / Johnny English Strikes Again (2018) 1080p H.265 Ukr/Eng | Sub Eng

Агент Джонні Інгліш. Трилогія / Johnny English. Trilogy (2003-2018) 1080p H.265 2xUkr/Eng | Sub Eng


Жанр: комедія, екшн, пригодницький
Країна: Велика Британія, Франція, США
Кінокомпанія: Universal Pictures, Studio Canal, Working Title Films
Режисер: Девід Керр
Актори: Ровен Аткінсон, Емма Томпсон, Ольга Куриленко, Джейк Лесі, Бен Міллер, Міранда Геннессі, Адам Джеймс, Піппа Беннетт-Ворнер, Ірена Тишана, Джеймс Ілс

Сюжет:
Безглузді пригоди найдурнішого британського шпигуна в історії. За сюжетом, напередодні найважливішої зустрічі лідерів провідних держав світу, Британія зазнала потужної хакерської атаки - паралізовано рух транспорту, робота лікарень і держустанов, а секрети служби МІ7 стали надбанням громадськості. Щоб врятувати честь країни, керівництво розвідки змушене звернутися до агентів, які давно вийшли на пенсію, в тому числі і до Джонні Інгліша, який нині викладає географію в школі. У пошуках хакера опальний шпигун, який раніше неодноразово рятував честь Корони, занурюється в світ інформаційних технологій, віртуальної реальності та штучного інтелекту. При цьому він володіє лише старовинними шпигунськими засобами часів холодної війни…

Тривалість: 01:28:33
Якість:
Відео:
кодек: H.265 (HEVC)
розмір кадру: 1920 x 804
бітрейт: 5 573 кб/с
бітова глибина: 10 біт
Увага! Перед завантаженням переконайтесь, що ваш пристрій відтворення (та/або ПЗ) підтримує H.265 (HEVC)

Аудіо # 1:
мова: українська
переклад: професійний дубльований
кодек: AC-3 2.0
бітрейт: 192 кб/с

Аудіо # 2:
мова: англійська
переклад: оригінал
кодек: AC-3 5.1
бітрейт: 640 кб/с

Субтитри # 1:
мова: англійська (Full),
тип: програмні (м'які)
формат: *.srt

Субтитри # 2:
мова: англійська (SDH),
тип: програмні (м'які)
формат: *.srt


Info
Код:
General
Unique ID                                : 334942597161722023401964893761076360353 (0xFBFB99064E1F3646A1B4BF64E0F674A1)
Complete name                            : F:\Video\Films\Johnny English. Trilogy (2003-2018) 1080p H.265 [UKR_ENG]\3. Johnny English Strikes Again (2018) 1080p H.265 [UKR_ENG].
Format                                   :
Format version                           : Version 4 / Version 2
File size                                : 3.96 GiB
Duration                                 : 1 h 28 min
Overall bit rate                         : 6 408 kb/s
Movie name                               : Johnny English Strikes Again (2018)
Encoded date                             : UTC 2019-01-30 11:03:40
Writing application                      : v20.0.0 ('I Am The Sun') 64-bit
Writing library                          : libebml v1.3.5 + v1.4.8
Cover                                    : Yes
Attachments                              : cover

Video
ID                                       : 1
Format                                   : HEVC
Format/Info                              : High Efficiency Video Coding
Format profile                           : Main [email protected]@High
Codec ID                                 : V_MPEGH/ISO/HEVC
Duration                                 : 1 h 28 min
Bit rate                                 : 5 573 kb/s
Width                                    : 1 920 pixels
Height                                   : 804 pixels
Display aspect ratio                     : 2.40:1
Frame rate mode                          : Constant
Frame rate                               : 23.976 (24000/1001) FPS
Color space                              : YUV
Chroma subsampling                       : 4:2:0
Bit depth                                : 10 bits
Bits/(Pixel*Frame)                       : 0.151
Stream size                              : 3.45 GiB (87%)
Title                                    : Johnny English Strikes Again (2018)
Writing library                          : x265 2.9+9-f74003e88622:[Mac OS X][clang 10.0.0][64 bit] 10bit
Encoding settings                        : cpuid=1111039 / frame-threads=14 / wpp / no-pmode / no-pme / no-psnr / no-ssim / log-level=3 / input-csp=1 / input-res=1920x804 / interlace=0 / total-frames=0 / level-idc=41 / high-tier=1 / uhd-bd=0 / ref=5 / allow-non-conformance / no-repeat-headers / annexb / no-aud / no-hrd / info / hash=0 / no-temporal-layers / open-gop / min-keyint=23 / keyint=240 / gop-lookahead=0 / bframes=14 / b-adapt=2 / b-pyramid / bframe-bias=0 / rc-lookahead=60 / lookahead-slices=5 / scenecut=40 / radl=0 / no-intra-refresh / ctu=64 / min-cu-size=8 / rect / amp / max-tu-size=32 / tu-inter-depth=4 / tu-intra-depth=4 / limit-tu=1 / rdoq-level=1 / dynamic-rd=0.00 / no-ssim-rd / signhide / no-tskip / nr-intra=0 / nr-inter=0 / no-constrained-intra / no-strong-intra-smoothing / max-merge=5 / limit-refs=2 / no-limit-modes / me=3 / subme=7 / merange=57 / temporal-mvp / weightp / weightb / no-analyze-src-pics / deblock=-3:-3 / no-sao / no-sao-non-deblock / rd=6 / no-early-skip / rskip / no-fast-intra / no-tskip-fast / no-cu-lossless / no-b-intra / no-splitrd-skip / rdpenalty=0 / psy-rd=2.00 / psy-rdoq=1.00 / no-rd-refine / no-lossless / cbqpoffs=0 / crqpoffs=0 / rc=crf / crf=18.0 / qcomp=0.60 / qpstep=4 / stats-write=0 / stats-read=0 / vbv-maxrate=50000 / vbv-bufsize=50000 / vbv-init=0.9 / crf-max=0.0 / crf-min=0.0 / ipratio=1.40 / pbratio=1.30 / aq-mode=2 / aq-strength=0.90 / no-cutree / zone-count=0 / no-strict-cbr / qg-size=32 / no-rc-grain / qpmax=69 / qpmin=0 / no-const-vbv / sar=1 / overscan=0 / videoformat=5 / range=0 / colorprim=2 / transfer=2 / colormatrix=2 / chromaloc=0 / display-window=0 / max-cll=0,0 / min-luma=0 / max-luma=1023 / log2-max-poc-lsb=8 / vui-timing-info / vui-hrd-info / slices=1 / no-opt-qp-pps / no-opt-ref-list-length-pps / no-multi-pass-opt-rps / scenecut-bias=0.00 / no-opt-cu-delta-qp / aq-motion / no-hdr / no-hdr-opt / no-dhdr10-opt / no-idr-recovery-sei / analysis-reuse-level=5 / scale-factor=0 / refine-intra=0 / refine-inter=0 / refine-mv=0 / no-limit-sao / ctu-info=0 / no-lowpass-dct / refine-mv-type=0 / copy-pic=1 / max-ausize-factor=1.0 / no-dynamic-refine / no-single-sei
Language                                 : English
Default                                  : Yes
Forced                                   : No

Audio #1
ID                                       : 2
Format                                   : AC-3
Format/Info                              : Audio Coding 3
Codec ID                                 : A_AC3
Duration                                 : 1 h 28 min
Bit rate mode                            : Constant
Bit rate                                 : 192 kb/s
Channel(s)                               : 2 channels
Channel positions                        : Front: L R
Sampling rate                            : 48.0 kHz
Frame rate                               : 31.250 FPS (1536 SPF)
Bit depth                                : 16 bits
Compression mode                         : Lossy
Stream size                              : 122 MiB (3%)
Title                                    : ПД
Language                                 : Ukrainian
Service kind                             : Complete Main
Default                                  : Yes
Forced                                   : Yes

Audio #2
ID                                       : 3
Format                                   : AC-3
Format/Info                              : Audio Coding 3
Codec ID                                 : A_AC3
Duration                                 : 1 h 28 min
Bit rate mode                            : Constant
Bit rate                                 : 640 kb/s
Channel(s)                               : 6 channels
Channel positions                        : Front: L C R, Side: L R, LFE
Sampling rate                            : 48.0 kHz
Frame rate                               : 31.250 FPS (1536 SPF)
Bit depth                                : 16 bits
Compression mode                         : Lossy
Stream size                              : 405 MiB (10%)
Title                                    : Original
Language                                 : English
Service kind                             : Complete Main
Default                                  : No
Forced                                   : No

Text #1
ID                                       : 4
Format                                   : UTF-8
Codec ID                                 : S_TEXT/UTF8
Codec ID/Info                            : UTF-8 Plain Text
Duration                                 : 1 h 22 min
Bit rate                                 : 57 b/s
Count of elements                        : 1020
Stream size                              : 34.4 KiB (0%)
Title                                    : Full
Language                                 : English
Default                                  : No
Forced                                   : No

Text #2
ID                                       : 5
Format                                   : UTF-8
Codec ID                                 : S_TEXT/UTF8
Codec ID/Info                            : UTF-8 Plain Text
Duration                                 : 1 h 22 min
Bit rate                                 : 66 b/s
Count of elements                        : 1301
Stream size                              : 40.5 KiB (0%)
Title                                    : SDH
Language                                 : English
Default                                  : No
Forced                                   : No

Menu
00:00:00.000                             : en:00:00:00.000
00:05:06.681                             : en:00:05:06.681
00:09:05.378                             : en:00:09:05.378
00:13:14.794                             : en:00:13:14.794
00:19:22.370                             : en:00:19:22.370
00:21:31.832                             : en:00:21:31.832
00:26:41.975                             : en:00:26:41.975
00:32:31.241                             : en:00:32:31.241
00:34:48.086                             : en:00:34:48.086
00:39:49.429                             : en:00:39:49.429
00:45:49.121                             : en:00:45:49.121
00:51:22.204                             : en:00:51:22.204
00:54:31.852                             : en:00:54:31.852
00:58:58.201                             : en:00:58:58.201
01:02:58.441                             : en:01:02:58.441
01:08:21.597                             : en:01:08:21.597
01:11:40.963                             : en:01:11:40.963
01:15:03.416                             : en:01:15:03.416
01:20:54.808                             : en:01:20:54.808
01:23:52.527                             : en:01:23:52.527
Світлини





Джерело: &
Особиста оцінка: 7 - моїй подрузі не сподобалося


Срібний реліз (на рейтинг впливає 50% завантаженого)
 Трекер:    Зареєстрований   

Завантажити / скачати фільм українською



відео для новачків



 Зареєстрований:   2019-02-07 17:06
 Розмір:   14.53 GB 
 Оцінка фільму:   9.2/10 (Голосів: 6)
   
eevviill 
Свій


З нами з: 13.08.08
Востаннє: 18.04.19
Повідомлень: 130

2019-03-09 17:56  
Чесно, не дуже.
7.2

Ваш часовий пояс: GMT + 2 Години

Нова тема   Відповісти