Перша людина / First Man (2018) 1080p H.265 [IMAX] Ukr/Eng | Sub Ukr/Eng

Нові коментарі

Нова тема   Відповісти
Автор Повідомлення
Anonymous 







2019-02-07 16:16  
Перша людина / First Man (2018) 1080p H.265 [IMAX] Ukr/Eng | Sub Ukr/Eng

Перша людина / First Man (2018) 1080p H.265 [IMAX] Ukr/Eng | Sub Ukr/Eng


Жанр: біографічний, драма, історичний
Країна: США
Кінокомпанія: Universal Pictures, DreamWorks, Perfect World Pictures
Режисер: Дем'єн Шазелл
Актори: Раян Ґослінг, Клер Фой, Джейсон Кларк, Кайл Чандлер, Корі Столл, Патрік Ф'юджит, Крістофер Ебботт, Кіаран Хайндс

Сюжет:
Погляд на життя астронавта Ніла Армстронга та легендарну космічну місію, яка 20 липня 1969 року зробила його першою людиною, що пройшлася поверхнею Місяця.

Тривалість: 02:20:59
Якість:

Відео:
кодек: H.265 (HEVC)
розмір кадру: 1920 x 1080
бітрейт: 6 750 кб/с
бітова глибина: 10 біт

Увага! Перед завантаженням переконайтесь, що ваш пристрій відтворення (та/або ПЗ) підтримує H.265 (HEVC)

Аудіо # 1:
мова: українська
переклад: професійний дубльований
кодек: AC-3 2.0
бітрейт: 192 кб/с

Аудіо # 2:
мова: англійська
переклад: оригінал
кодек: 5.1
бітрейт: 1510 кб/с

Субтитри # 1-2: (Forced, Full from Netflix)
мова: українська
тип: програмні (м'які)
формат: *.srt

Субтитри # 3-4: (Full, SDH)
мова: англійська
тип: програмні (м'які)
формат: *.srt


Info
Код:
General
Unique ID                                : 322506622857788939897170176115696777781 (0xF2A08427286A21CD6A6F50EF63A0BA35)
Complete name                            : First Man (2018) 1080p H.265 [IMAX] [UKR_ENG] [Hurtom].
Format                                   :
Format version                           : Version 4
File size                                : 8.33 GiB
Duration                                 : 2 h 20 min
Overall bit rate                         : 8 454 kb/s
Movie name                               : Перша людина / First Man (2018) [IMAX]
Encoded date                             : UTC 2020-09-22 11:19:52
Writing application                      : v20.0.0 ('I Am The Sun') 64-bit
Writing library                          : libebml v1.3.5 + v1.4.8
Cover                                    : Yes
Attachments                              : cover

Video
ID                                       : 1
Format                                   : HEVC
Format/Info                              : High Efficiency Video Coding
Format profile                           : Main [email protected]@High
Codec ID                                 : V_MPEGH/ISO/HEVC
Duration                                 : 2 h 20 min
Bit rate                                 : 6 750 kb/s
Width                                    : 1 920 pixels
Height                                   : 1 080 pixels
Display aspect ratio                     : 16:9
Frame rate mode                          : Constant
Frame rate                               : 23.976 (24000/1001) FPS
Color space                              : YUV
Chroma subsampling                       : 4:2:0
Bit depth                                : 10 bits
Bits/(Pixel*Frame)                       : 0.136
Stream size                              : 6.65 GiB (80%)
Title                                    : Перша людина / First Man (2018) [IMAX]
Writing library                          : x265 2.9+9-f74003e88622:[Windows][GCC 8.2.0][64 bit] 10bit
Encoding settings                        : cpuid=1049583 / frame-threads=5 / numa-pools=4 / wpp / no-pmode / no-pme / no-psnr / no-ssim / log-level=3 / input-csp=1 / input-res=1920x1080 / interlace=0 / total-frames=0 / level-idc=41 / high-tier=1 / uhd-bd=0 / ref=4 / allow-non-conformance / no-repeat-headers / annexb / no-aud / no-hrd / info / hash=0 / no-temporal-layers / open-gop / min-keyint=24 / keyint=240 / gop-lookahead=0 / bframes=8 / b-adapt=2 / b-pyramid / bframe-bias=0 / rc-lookahead=40 / lookahead-slices=6 / scenecut=40 / radl=0 / no-intra-refresh / ctu=64 / min-cu-size=8 / no-rect / no-amp / max-tu-size=32 / tu-inter-depth=1 / tu-intra-depth=1 / limit-tu=0 / rdoq-level=0 / dynamic-rd=0.00 / no-ssim-rd / signhide / no-tskip / nr-intra=0 / nr-inter=0 / no-constrained-intra / strong-intra-smoothing / max-merge=2 / limit-refs=3 / no-limit-modes / me=3 / subme=7 / merange=57 / temporal-mvp / weightp / no-weightb / no-analyze-src-pics / deblock=-3:-3 / no-sao / no-sao-non-deblock / rd=3 / no-early-skip / rskip / no-fast-intra / no-tskip-fast / no-cu-lossless / no-b-intra / no-splitrd-skip / rdpenalty=0 / psy-rd=2.00 / psy-rdoq=0.00 / no-rd-refine / no-lossless / cbqpoffs=0 / crqpoffs=0 / rc=crf / crf=20.0 / qcomp=0.70 / qpstep=4 / stats-write=0 / stats-read=0 / vbv-maxrate=50000 / vbv-bufsize=50000 / vbv-init=0.9 / crf-max=0.0 / crf-min=0.0 / ipratio=1.40 / pbratio=1.30 / aq-mode=1 / aq-strength=1.00 / cutree / zone-count=0 / no-strict-cbr / qg-size=32 / no-rc-grain / qpmax=69 / qpmin=0 / no-const-vbv / sar=1 / overscan=0 / videoformat=5 / range=0 / colorprim=1 / transfer=1 / colormatrix=1 / chromaloc=0 / display-window=0 / max-cll=0,0 / min-luma=0 / max-luma=1023 / log2-max-poc-lsb=8 / vui-timing-info / vui-hrd-info / slices=1 / no-opt-qp-pps / no-opt-ref-list-length-pps / no-multi-pass-opt-rps / scenecut-bias=0.05 / no-opt-cu-delta-qp / no-aq-motion / no-hdr / no-hdr-opt / no-dhdr10-opt / no-idr-recovery-sei / analysis-reuse-level=5 / scale-factor=0 / refine-intra=0 / refine-inter=0 / refine-mv=0 / no-limit-sao / ctu-info=0 / no-lowpass-dct / refine-mv-type=0 / copy-pic=1 / max-ausize-factor=1.0 / no-dynamic-refine / no-single-sei
Language                                 : English
Default                                  : Yes
Forced                                   : No
Color range                              : Limited
Color primaries                          : BT.709
Transfer characteristics                 : BT.709
Matrix coefficients                      : BT.709

Audio #1
ID                                       : 2
Format                                   : AC-3
Format/Info                              : Audio Coding 3
Commercial name                          : Dolby Digital
Codec ID                                 : A_AC3
Duration                                 : 2 h 20 min
Bit rate mode                            : Constant
Bit rate                                 : 192 kb/s
Channel(s)                               : 2 channels
Channel layout                           : L R
Sampling rate                            : 48.0 kHz
Frame rate                               : 31.250 FPS (1536 SPF)
Compression mode                         : Lossy
Stream size                              : 194 MiB (2%)
Title                                    : / 2.0 Ch / 192 kbps / DUB / iTunes
Language                                 : Ukrainian
Service kind                             : Complete Main
Default                                  : Yes
Forced                                   : Yes

Audio #2
ID                                       : 3
Format                                   :
Format/Info                              : Digital Theater Systems
Codec ID                                 : A_DTS
Duration                                 : 2 h 20 min
Bit rate mode                            : Constant
Bit rate                                 : 1 509 kb/s
Channel(s)                               : 6 channels
Channel layout                           : C L R Ls Rs LFE
Sampling rate                            : 48.0 kHz
Frame rate                               : 93.750 FPS (512 SPF)
Bit depth                                : 16 bits
Compression mode                         : Lossy
Stream size                              : 1.49 GiB (18%)
Title                                    : / 5.1 Ch / 1509 kbps / Original
Language                                 : English
Default                                  : No
Forced                                   : No

Text #1
ID                                       : 4
Format                                   : UTF-8
Codec ID                                 : S_TEXT/UTF8
Codec ID/Info                            : UTF-8 Plain Text
Duration                                 : 25 min 22 s
Bit rate                                 : 2 b/s
Count of elements                        : 4
Stream size                              : 423 Bytes (0%)
Title                                    : Forced
Language                                 : Ukrainian
Default                                  : Yes
Forced                                   : Yes

Text #2
ID                                       : 5
Format                                   : UTF-8
Codec ID                                 : S_TEXT/UTF8
Codec ID/Info                            : UTF-8 Plain Text
Duration                                 : 2 h 19 min
Bit rate                                 : 69 b/s
Count of elements                        : 1200
Stream size                              : 71.0 KiB (0%)
Title                                    : Full from Netflix
Language                                 : Ukrainian
Default                                  : No
Forced                                   : No

Text #3
ID                                       : 6
Format                                   : UTF-8
Codec ID                                 : S_TEXT/UTF8
Codec ID/Info                            : UTF-8 Plain Text
Duration                                 : 2 h 10 min
Bit rate                                 : 48 b/s
Count of elements                        : 1376
Stream size                              : 46.9 KiB (0%)
Title                                    : Full
Language                                 : English
Default                                  : No
Forced                                   : No

Text #4
ID                                       : 7
Format                                   : UTF-8
Codec ID                                 : S_TEXT/UTF8
Codec ID/Info                            : UTF-8 Plain Text
Duration                                 : 2 h 12 min
Bit rate                                 : 55 b/s
Count of elements                        : 1596
Stream size                              : 53.9 KiB (0%)
Title                                    : SDH
Language                                 : English
Default                                  : No
Forced                                   : No

Menu
00:00:00.000                             : en:Chapter 1
00:07:20.440                             : en:Chapter 2
00:13:35.982                             : en:Chapter 3
00:19:53.192                             : en:Chapter 4
00:25:59.725                             : en:Chapter 5
00:31:30.138                             : en:Chapter 6
00:40:17.248                             : en:Chapter 7
00:49:57.703                             : en:Chapter 8
01:00:03.016                             : en:Chapter 9
01:05:42.397                             : en:Chapter 10
01:11:05.720                             : en:Chapter 11
01:15:12.967                             : en:Chapter 12
01:21:32.888                             : en:Chapter 13
01:30:35.305                             : en:Chapter 14
01:39:00.726                             : en:Chapter 15
01:48:58.490                             : en:Chapter 16
01:54:44.419                             : en:Chapter 17
02:00:14.916                             : en:Chapter 18
02:09:55.705                             : en:Chapter 19
02:14:02.743                             : en:Chapter 20
Світлини




Джерело: &
Особиста оцінка: 10 - без зайвих вагань рекомендую всім!

Подяка пану leicheman за надані укр. субтитри.


 Трекер:    Зареєстрований   

Завантажити / скачати фільм українською



відео для новачків



 Зареєстрований:   2020-09-22 14:34
 Розмір:   8.33 GB 
 Оцінка фільму:   8.9/10 (Голосів: 13)
   
vash1 
VIP


З нами з: 16.03.16
Востаннє: 25.09.20
Повідомлень: 265

2019-02-07 19:11  
крутезне кіно! чудове поєднання драми та космосу.
omm 
Відео Гуртом - фільмокрай
Відео Гуртом - фільмокрай


З нами з: 12.06.12
Востаннє: 29.09.20
Повідомлень: 2422

2019-04-10 20:36  
Фільм загалом непоганий. АЛЕ, схоже, Ніл Армстронґ не настільки цікава людина, щоб про нього знімати байопік, тому що місцями було нудно. Ґослінґ наче й непогано зіграв, але в деяких епізодах відчувалась штучність.

Від Дем'єна Шазела чекав значно більшого після чудових "Одержимості" і "Ла Ла Ленда".

7 з 10

Anonymous 







2020-09-22 14:34  
Додано укр. субтитри.
Ваш часовий пояс: GMT + 2 Години

Нова тема   Відповісти