Прислуга / The Help (2011) mini 1080p H.265 Ukr/Eng | Sub Ukr/Eng

Нові коментарі

Нова тема   Відповісти
Автор Повідомлення
Anonymous 







2019-02-07 15:02  
Прислуга / The Help (2011) mini 1080p H.265 Ukr/Eng | Sub Ukr/Eng

Прислуга / The Help (2011) mini 1080p H.265 Ukr/Eng | Sub Ukr/Eng


Жанр: драма
Країна: США, Індія, ОАЕ
Кінокомпанія: DreamWorks, Reliance Entertainment, Participant Media
Режисер: Тейт Тейлор
Актори: Емма Стоун, Віола Девіс, Брайс Даллас Говард, Октавія Спенсер, Джессіка Честейн, Ана О'Райлі, Еллісон Дженні, Анна Кемп, Майк Воґель, Сіссі Спейсек

Сюжет:
Закон народжується тоді, коли в основі його покладено непорушні моральні принципи. Це не станеться, якщо мовчати про свої переконання. Тому молода дівчина, яка щойно закінчила університет, наділена хоробрістю та здібністю до літератури, пише книгу про життя афроамериканців. Вона стає однією з перших, хто став прокладати шлях до великих змін.

Тривалість: 02:26:14
Якість:
Відео:
кодек: H.265 (HEVC)
розмір кадру: 1920 x 1040
бітрейт: 5 200 кб/с
бітова глибина: 10 біт
Увага! Перед завантаженням переконайтесь, що ваш пристрій відтворення (та/або ПЗ) підтримує H.265 (HEVC)

Аудіо # 1:
мова: українська
переклад: професійний дубльований
кодек: AC-3 5.1
бітрейт: 448 кб/с

Аудіо # 2:
мова: англійська
переклад: оригінал
кодек: 5.1
бітрейт: 1510 кб/с

Субтитри # 1:
мова: українська (Full),
тип: програмні (м'які)
формат: *.srt

Субтитри # 2:
мова: англійська (SDH),
тип: програмні (м'які)
формат: *.srt


Info
Код:
General
Unique ID                                : 157200651727989487890221388971331920732 (0x7643BE86C68D835653C9D665BA75A35C)
Complete name                            : F:\Video\Films\The Help (2011) 1080p H.265 [UKR_ENG].
Format                                   :
Format version                           : Version 4 / Version 2
File size                                : 7.32 GiB
Duration                                 : 2 h 26 min
Overall bit rate                         : 7 161 kb/s
Movie name                               : The Help (2011)
Encoded date                             : UTC 2019-02-06 14:28:40
Writing application                      : v20.0.0 ('I Am The Sun') 64-bit
Writing library                          : libebml v1.3.5 + v1.4.8
Cover                                    : Yes
Attachments                              : cover.jpg

Video
ID                                       : 1
Format                                   : HEVC
Format/Info                              : High Efficiency Video Coding
Format profile                           : Main [email protected]@Main
Codec ID                                 : V_MPEGH/ISO/HEVC
Duration                                 : 2 h 26 min
Bit rate                                 : 5 200 kb/s
Width                                    : 1 920 pixels
Height                                   : 1 040 pixels
Display aspect ratio                     : 1.85:1
Frame rate mode                          : Constant
Frame rate                               : 23.976 (24000/1001) FPS
Color space                              : YUV
Chroma subsampling                       : 4:2:0
Bit depth                                : 10 bits
Bits/(Pixel*Frame)                       : 0.109
Stream size                              : 5.31 GiB (73%)
Title                                    : The Help (2011)
Writing library                          : x265 3.0+1-ed72af837053:[Windows][GCC 8.2.0][64 bit] 10bit
Encoding settings                        : cpuid=1111039 / frame-threads=3 / numa-pools=8 / wpp / no-pmode / no-pme / no-psnr / no-ssim / log-level=2 / input-csp=1 / input-res=1920x1040 / interlace=0 / total-frames=210389 / level-idc=0 / high-tier=1 / uhd-bd=0 / ref=4 / no-allow-non-conformance / no-repeat-headers / annexb / no-aud / no-hrd / info / hash=0 / no-temporal-layers / open-gop / min-keyint=23 / keyint=250 / gop-lookahead=0 / bframes=8 / b-adapt=2 / b-pyramid / bframe-bias=0 / rc-lookahead=80 / lookahead-slices=4 / scenecut=40 / radl=0 / no-splice / no-intra-refresh / ctu=64 / min-cu-size=8 / no-rect / no-amp / max-tu-size=32 / tu-inter-depth=1 / tu-intra-depth=1 / limit-tu=0 / rdoq-level=2 / dynamic-rd=0.00 / no-ssim-rd / signhide / no-tskip / nr-intra=0 / nr-inter=0 / no-constrained-intra / no-strong-intra-smoothing / max-merge=3 / limit-refs=3 / limit-modes / me=3 / subme=5 / merange=57 / temporal-mvp / weightp / no-weightb / no-analyze-src-pics / deblock=-3:-3 / no-sao / no-sao-non-deblock / rd=4 / no-early-skip / rskip / no-fast-intra / no-tskip-fast / no-cu-lossless / no-b-intra / no-splitrd-skip / rdpenalty=0 / psy-rd=2.00 / psy-rdoq=1.20 / no-rd-refine / no-lossless / cbqpoffs=0 / crqpoffs=0 / rc=abr / bitrate=5200 / qcomp=0.60 / qpstep=4 / stats-write=0 / stats-read=2 / cplxblur=20.0 / qblur=0.5 / ipratio=1.40 / pbratio=1.30 / aq-mode=3 / aq-strength=1.00 / cutree / zone-count=0 / no-strict-cbr / qg-size=32 / no-rc-grain / qpmax=69 / qpmin=0 / no-const-vbv / sar=0 / overscan=0 / videoformat=5 / range=0 / colorprim=2 / transfer=2 / colormatrix=2 / chromaloc=0 / display-window=0 / max-cll=0,0 / min-luma=0 / max-luma=1023 / log2-max-poc-lsb=8 / vui-timing-info / vui-hrd-info / slices=1 / no-opt-qp-pps / no-opt-ref-list-length-pps / no-multi-pass-opt-rps / scenecut-bias=0.05 / no-opt-cu-delta-qp / no-aq-motion / no-hdr / no-hdr-opt / no-dhdr10-opt / no-idr-recovery-sei / analysis-reuse-level=5 / scale-factor=0 / refine-intra=0 / refine-inter=0 / refine-mv=0 / refine-ctu-distortion=0 / no-limit-sao / ctu-info=0 / no-lowpass-dct / refine-analysis-type=0 / copy-pic=1 / max-ausize-factor=1.0 / no-dynamic-refine / no-single-sei / no-hevc-aq / qp-adaptation-range=1.00
Default                                  : Yes
Forced                                   : No

Audio #1
ID                                       : 2
Format                                   : AC-3
Format/Info                              : Audio Coding 3
Codec ID                                 : A_AC3
Duration                                 : 2 h 26 min
Bit rate mode                            : Constant
Bit rate                                 : 448 kb/s
Channel(s)                               : 6 channels
Channel positions                        : Front: L C R, Side: L R, LFE
Sampling rate                            : 48.0 kHz
Frame rate                               : 31.250 FPS (1536 SPF)
Bit depth                                : 16 bits
Compression mode                         : Lossy
Stream size                              : 469 MiB (6%)
Title                                    : ПД - DVD [ 5.1; 448 Kbps]
Language                                 : Ukrainian
Service kind                             : Complete Main
Default                                  : Yes
Forced                                   : Yes

Audio #2
ID                                       : 3
Format                                   :
Format/Info                              : Digital Theater Systems
Codec ID                                 : A_DTS
Duration                                 : 2 h 26 min
Bit rate mode                            : Constant
Bit rate                                 : 1 509 kb/s
Channel(s)                               : 6 channels
Channel positions                        : Front: L C R, Side: L R, LFE
Sampling rate                            : 48.0 kHz
Frame rate                               : 93.750 FPS (512 SPF)
Bit depth                                : 24 bits
Compression mode                         : Lossy
Stream size                              : 1.54 GiB (21%)
Title                                    : Original - [ 5.1 1536 Kbps]
Language                                 : English
Default                                  : No
Forced                                   : No

Text #1
ID                                       : 4
Format                                   : UTF-8
Codec ID                                 : S_TEXT/UTF8
Codec ID/Info                            : UTF-8 Plain Text
Duration                                 : 2 h 16 min
Bit rate                                 : 93 b/s
Count of elements                        : 1721
Stream size                              : 93.9 KiB (0%)
Title                                    : Full
Language                                 : Ukrainian
Default                                  : No
Forced                                   : No

Text #2
ID                                       : 5
Format                                   : UTF-8
Codec ID                                 : S_TEXT/UTF8
Codec ID/Info                            : UTF-8 Plain Text
Duration                                 : 2 h 16 min
Bit rate                                 : 64 b/s
Count of elements                        : 1917
Stream size                              : 64.7 KiB (0%)
Title                                    : SDH
Language                                 : English
Default                                  : No
Forced                                   : No

Menu
00:00:00.000                             : en:Chapter 01
00:09:39.870                             : en:Chapter 02
00:17:53.781                             : en:Chapter 03
00:26:10.986                             : en:Chapter 04
00:33:42.145                             : en:Chapter 05
00:46:05.679                             : en:Chapter 06
00:52:59.092                             : en:Chapter 07
01:04:12.723                             : en:Chapter 08
01:19:51.119                             : en:Chapter 09
01:31:14.051                             : en:Chapter 10
01:40:54.673                             : en:Chapter 11
01:48:10.525                             : en:Chapter 12
01:55:14.115                             : en:Chapter 13
02:03:43.707                             : en:Chapter 14
02:12:47.000                             : en:Chapter 15
02:18:32.679                             : en:Chapter 16
Світлини





Джерело: &
Особиста оцінка: 0 - не дивився


 Трекер:    Зареєстрований   

Завантажити / скачати фільм українською



відео для новачків



 Зареєстрований:   2019-02-07 15:02
 Розмір:   7.32 GB 
 Оцінка фільму:   10/10 (Голосів: 4)
   
Інші релізи
   Прислуга / The Help (2011) AVC Ukr/Eng | Sub Ukr/Eng staf777  8 / 0   3.78 GB   2019-06-30 21:28 
   Прислуга / The Help (2011) Remux 1080p Ukr/Eng | Sub Ukr/Eng/Multi Timm  1 / 0   27.95 GB   2019-06-30 18:56 
   Прислуга / The Help (2011) Gelios  7 / 0   2.18 GB   2017-01-25 09:20 
   Прислуга / The Help (2011) 720p Ukr/Eng | Sub Ukr/Eng Dim-ON  6 / 0   9.22 GB   2012-09-30 22:19 
   Прислуга / The Help (2011) Ukr/Eng | Sub Ukr/Eng Skiff  5 / 0   2.91 GB   2012-09-28 17:47 
Ваш часовий пояс: GMT + 2 Години

Нова тема   Відповісти