Універсальний солдат / Universal Soldier (1992) Remux 1080p Ukr/Eng | Sub Eng

Нові коментарі

Нова тема   Відповісти
Автор Повідомлення
MakRA 
VIP


З нами з: 10.11.18
Востаннє: 20.11.19
Повідомлень: 528

2019-02-07 12:45  
Універсальний солдат / Universal Soldier (1992) Remux 1080p Ukr/Eng | Sub Eng

Універсальний солдат / Universal Soldier (1992) Remux 1080p Ukr/Eng | Sub Eng


Жанр: екшн, фантастика
Країна: США



Кінокомпанія: Carolco Pictures
Режисер: Роланд Еммеріх [Roland Emmerich]
Актори: Жан-Клод Ван Дамм [Jean-Claude Van Damme], Дольф Лундґрен [Dolph Lundgren], Еллі Вокер [Ally Walker], Ед О‘Росс [Ed O'Ross], Джеррі Орбах [Jerry Orbach], Леон Ріппі [Leon Rippy], Меллер Ральф [Ralf Moeller], Тіко Веллс [Tico Wells].

Сюжет:
Справжній майстер-клас з виготовлення якісного бойовика від Роланда Еммеріха. Крутий екшн початку 90-х про двох солдатів, які загинули у В'єтнамі, але були перетворені універсальних солдатів-вбивць.
Користуючись своїми надзвичайними здібностями, вони займаються ліквідацією терористичних угруповань та беруть участь в інших спеціальних операціях.

Під час одного з таких завдань таємницю універсальних солдатів дізнається репортер. Тепер їм загрожує смерть і лише допомога Люка Деверо, який згадав своє минуле, дозволяє уникнути її...


Тривалість: 01:43:43
Якість: Remux 1080p
Відео:
кодек:
розмір кадру: 1920 х 1080
бітрейт: 24.0 Mb/s

Аудіо # 1:
мова: українська
переклад: двоголосий закадровий [1+1]
кодек: 5.1
бітрейт: 448 кб/с

Аудіо # 2:
мова: англійська
переклад: оригінал
кодек: -MA 5.1
бітрейт: 1 509 kb/s

Аудіо # 3:
мова: англійська
переклад: оригінал
кодек: 5.1
бітрейт: 448 кб/с

Аудіо # 4:
мова: англійська
переклад: оригінал | коментарі режисера Роналда Еммеріха, продюсера Діна Делвіна, акторів Жан-Клода Ван Дамма і Дольфа Лундґрена
кодек: 2.0
бітрейт: 192 кб/с

Субтитри # 1-2:
мова: англійська
тип: пререндерні
формат: *.pgs
Info
General
Unique ID : 96679075707202387595408076907132684245 (0x48BBB672DA60354E4E49CA530DFB07D5)
Complete name : F:\Бойовик, фантастика\Universal Soldier (1992) Remux 1080p UkrEng Sub Eng [Hurtom].
Format :
Format version : Version 4 / Version 2
File size : 21.4 GiB
Duration : 1 h 43 min
Overall bit rate mode : Variable
Overall bit rate : 29.5 Mb/s
Encoded date : UTC 2019-02-07 08:48:51
Writing application : v25.0.0 ('Prog Noir') 64-bit
Writing library : libebml v1.3.6 + v1.4.9

Video
ID : 1
Format : AVC
Format/Info : Advanced Video Codec
Format profile : [email protected]
Format settings, CABAC : Yes
Format settings, RefFrames : 4 frames
Codec ID : V_MPEG4/ISO/AVC
Duration : 1 h 43 min
Bit rate mode : Variable
Bit rate : 24.0 Mb/s
Maximum bit rate : 33.0 Mb/s
Width : 1 920 pixels
Height : 1 080 pixels
Display aspect ratio : 16:9
Frame rate mode : Constant
Frame rate : 23.976 (24000/1001) FPS
Standard : NTSC
Color space : YUV
Chroma subsampling : 4:2:0
Bit depth : 8 bits
Scan type : Progressive
Bits/(Pixel*Frame) : 0.483
Stream size : 17.4 GiB (81%)
Title : Universal Soldier (1992) Remux 1080p Ukr/Eng | Sub Eng [Hurtom]
Language : Ukrainian
Default : Yes
Forced : Yes
Color range : Limited
Color primaries : BT.709
Transfer characteristics : BT.709
Matrix coefficients : BT.709

Audio #1
ID : 2
Format : AC-3
Format/Info : Audio Coding 3
Format settings, Endianness : Big
Codec ID : A_AC3
Duration : 1 h 43 min
Bit rate mode : Constant
Bit rate : 448 kb/s
Channel(s) : 6 channels
Channel positions : Front: L C R, Side: L R, LFE
Sampling rate : 48.0 kHz
Frame rate : 31.250 FPS (1536 SPF)
Bit depth : 16 bits
Compression mode : Lossy
Stream size : 332 MiB (2%)
Title : DVO [1+1}
Language : Ukrainian
Service kind : Complete Main
Default : Yes
Forced : Yes

Audio #2
ID : 3
Format :
Format/Info : Digital Theater Systems
Format profile : MA / Core
Mode : 16
Format settings, Endianness : Big
Codec ID : A_DTS
Duration : 1 h 43 min
Bit rate mode : Variable / Constant
Bit rate : 4 384 kb/s / 1 509 kb/s
Channel(s) : 6 channels
Channel positions : Front: L C R, Side: L R, LFE
Sampling rate : 48.0 kHz
Frame rate : 93.750 FPS (512 SPF)
Bit depth : 24 bits
Compression mode : Lossless / Lossy
Stream size : 3.18 GiB (15%)
Title : Original
Language : English
Default : No
Forced : No

Audio #3
ID : 4
Format : AC-3
Format/Info : Audio Coding 3
Format settings, Endianness : Big
Codec ID : A_AC3
Duration : 1 h 43 min
Bit rate mode : Constant
Bit rate : 448 kb/s
Channel(s) : 6 channels
Channel positions : Front: L C R, Side: L R, LFE
Sampling rate : 48.0 kHz
Frame rate : 31.250 FPS (1536 SPF)
Bit depth : 16 bits
Compression mode : Lossy
Stream size : 332 MiB (2%)
Title : Original
Language : English
Service kind : Complete Main
Default : No
Forced : No

Audio #4
ID : 5
Format : AC-3
Format/Info : Audio Coding 3
Format settings, Endianness : Big
Codec ID : A_AC3
Duration : 1 h 43 min
Bit rate mode : Constant
Bit rate : 192 kb/s
Channel(s) : 2 channels
Channel positions : Front: L R
Sampling rate : 48.0 kHz
Frame rate : 31.250 FPS (1536 SPF)
Bit depth : 16 bits
Compression mode : Lossy
Stream size : 142 MiB (1%)
Title : Original | Commentary Director Roland Emmerich, Producer Dean Devlin, / Actors Jean-Claude Van Damme & Dolph Lundgren
Language : English
Service kind : Complete Main
Default : No
Forced : No

Text #1
ID : 6
Format : PGS
Muxing mode : zlib
Codec ID : S_HDMV/PGS
Codec ID/Info : Picture based subtitle format used on BDs/HD-DVDs
Duration : 1 h 22 min
Bit rate : 20.5 kb/s
Count of elements : 1736
Stream size : 12.1 MiB (0%)
Title : Eng
Language : English
Default : No
Forced : No

Text #2
ID : 7
Format : PGS
Muxing mode : zlib
Codec ID : S_HDMV/PGS
Codec ID/Info : Picture based subtitle format used on BDs/HD-DVDs
Duration : 1 h 22 min
Bit rate : 25.2 kb/s
Count of elements : 2022
Stream size : 14.9 MiB (0%)
Title : Eng
Language : English
Default : No
Forced : No
Скріншоти
Джерело: &
Особиста оцінка: 10 - без зайвих вагань рекомендую всім!


Золотий реліз (завантажене не впливає на рейтинг)
 Трекер:    Зареєстрований   

Завантажити / скачати фільм українською



відео для новачків



 Зареєстрований:   2019-02-07 12:45
 Розмір:   21.36 GB 
 Оцінка фільму:   9.7/10 (Голосів: 9)
   
Інші релізи
MakRA 
VIP


З нами з: 10.11.18
Востаннє: 20.11.19
Повідомлень: 528

2019-11-18 11:49  
Планується оновлення релізу до Remux 1080p [Remastered]
Ваш часовий пояс: GMT + 2 Години

Нова тема   Відповісти