Суддя Дредд / Judge Dredd (1995) Remux 1080p Ukr/Eng | Sub Eng

Нові коментарі

Нова тема   Відповісти
Автор Повідомлення
MakRA 
Поважний учасник


З нами з: 11.11.18
Востаннє: 19.04.19
Повідомлень: 174

2019-02-07 03:24  
Суддя Дредд / Judge Dredd (1995) Remux 1080p Ukr/Eng | Sub Eng

Суддя Дредд / Judge Dredd (1995) Remux 1080p Ukr/Eng | Sub Eng


Український постер:



Жанр: бойовик, фантастика, екшн
Країна: США



Кінокомпанія: Cinergi Pictures Entertainment Inc., Hollywood Pictures
Режисер: Денні Кеннон [Danny Cannon]
Актори: Сильвестер Сталлоне [Sylvester Stallone], Арманд Асcанте [Armand Assante], Роб Шнайдер [Rob Schneider], Юрген Прохнов [Jürgen Prochnow], Макс фон Сюдов [Max von Sydow], Даян Лейн [Diane Lane], Джоанна Майлз [Joanna Miles], Джоан Чень [Joan Chen], Бальтазар Гетті [Balthazar Getty], Джанкарло Еспозіто [Giancarlo Esposito].

Сюжет:
Глобальна екологічна катастрофа, що викликала численні землетруси, пожежі й повені, перетворила планету на отруєну, випалену пустелю. Залишки цивілізації — кілька величезних мегаполісів, на вулицях яких панує насильство й безлад.
Система правосуддя, що не справляється зі злочинністю в багатомільйонних містах, була змушена створити підрозділи збройних суддів, які самі розшукували, затримували, розслідували справи злочинців, а також виносили вирок і приводили його в дію на місці.
Один з них - суддя Дредд...

Цікаві факти про фільм:


Денні Кеннон відмовився режисувати бойовик Міцний горішок 3 (1995), щоб зробити цей фільм.

Режисер Денні Кеннон був настільки стурбований своїми постійними творчими суперечками з Сильвестром Сталлоне, що присягнув ніколи більше не працювати з іншим великим актором. Режисер також стверджував, що остаточна версія фільму повністю відрізняється від оригінального сценарію через зміни, які вимагав Сталлоне. У подальших інтерв'ю Сильвестр Сталлоне сказав, що він вважав, що фільм повинен був бути комедійним бойовиком, і вимагав переписати сценарій, щоб зробити проект ще більш комедійним. Проте режисер і сценарист мали намір зробити його похмурішим і сатиричнішим. Це призвело до багатьох труднощів під час зйомок.

Сильвестр Сталлоне ніколи не чув про суддю Дредда, поки йому не запропонували цю роль.

Момент, коли Дредд знімає шолом, викликав багато суперечок. Суддя Дредд ніколи не знімав шолом у коміксах. Він зняв його лише один раз, але його спотворене обличчя було прикрите цензурою.

За словами Роба Шнайдера, Сильвестр Сталлоне назвав його кандидатуру і запропонував йому роль Фергі після того, як перший кандидат, Джо Пескі, відмовився від неї.
Крістофер Вокен відмовився від ролі Ріко.


Тривалість: 01:36:07
Якість: Remux 1080p
Відео:
кодек:
розмір кадру: 1920 х 1080
бітрейт: 20.0 Mb/s

Аудіо # 1:
мова: українська
переклад: багатоголосий закадровий [ICTV]
кодек: 2.0
бітрейт: 192 kb/s

Аудіо # 2:
мова: англійська
переклад: оригінал
кодек: -MA 5.1
бітрейт: 2 296 kb/s

Субтитри:
мова: англійська
тип: пререндерні
формат: *.pgs
Info
General
Unique ID : 95785546224664412665159774840825889046 (0x480FA00B3AE4419B6DB5415A3BBCC116)
Complete name : F:\Бойовик, фантастика\Judge Dredd (1995) Remux 1080p UkrEng Sub Eng [Hurtom].
Format :
Format version : Version 4 / Version 2
File size : 15.1 GiB
Duration : 1 h 36 min
Overall bit rate mode : Variable
Overall bit rate : 22.5 Mb/s
Encoded date : UTC 2019-02-06 22:19:01
Writing application : v25.0.0 ('Prog Noir') 64-bit
Writing library : libebml v1.3.6 + v1.4.9

Video
ID : 1
Format : AVC
Format/Info : Advanced Video Codec
Format profile : [email protected]
Format settings, CABAC : Yes
Format settings, RefFrames : 4 frames
Codec ID : V_MPEG4/ISO/AVC
Duration : 1 h 36 min
Bit rate mode : Variable
Bit rate : 20.0 Mb/s
Maximum bit rate : 38.0 Mb/s
Width : 1 920 pixels
Height : 1 080 pixels
Display aspect ratio : 16:9
Frame rate mode : Constant
Frame rate : 23.976 (24000/1001) FPS
Color space : YUV
Chroma subsampling : 4:2:0
Bit depth : 8 bits
Scan type : Progressive
Bits/(Pixel*Frame) : 0.402
Stream size : 13.4 GiB (89%)
Title : Judge Dredd (1995) Remux 1080p Ukr/Eng | Sub Eng
Language : Ukrainian
Default : Yes
Forced : Yes
Color range : Limited
Color primaries : BT.709
Transfer characteristics : BT.709
Matrix coefficients : BT.709

Audio #1
ID : 2
Format : AC-3
Format/Info : Audio Coding 3
Format settings, Endianness : Big
Codec ID : A_AC3
Duration : 1 h 36 min
Bit rate mode : Constant
Bit rate : 192 kb/s
Channel(s) : 2 channels
Channel positions : Front: L R
Sampling rate : 48.0 kHz
Frame rate : 31.250 FPS (1536 SPF)
Bit depth : 16 bits
Compression mode : Lossy
Stream size : 132 MiB (1%)
Title : MVO [ICTV]
Language : Ukrainian
Service kind : Complete Main
Default : Yes
Forced : Yes

Audio #2
ID : 3
Format :
Format/Info : Digital Theater Systems
Format profile : MA / Core
Mode : 16
Format settings, Endianness : Big
Codec ID : A_DTS
Duration : 1 h 36 min
Bit rate mode : Variable / Constant
Bit rate : 2 296 kb/s / 1 509 kb/s
Channel(s) : 6 channels
Channel positions : Front: L C R, Side: L R, LFE
Sampling rate : 48.0 kHz
Frame rate : 93.750 FPS (512 SPF)
Bit depth : 16 bits
Compression mode : Lossless / Lossy
Stream size : 1.54 GiB (10%)
Title : Original
Language : English
Default : No
Forced : No

Text
ID : 4
Format : PGS
Muxing mode : zlib
Codec ID : S_HDMV/PGS
Codec ID/Info : Picture based subtitle format used on BDs/HD-DVDs
Duration : 1 h 26 min
Bit rate : 31.4 kb/s
Count of elements : 1551
Stream size : 19.4 MiB (0%)
Title : Eng
Language : English
Default : No
Forced : No
Скріншоти
Джерело: &
Особиста оцінка: 10 - без зайвих вагань рекомендую всім!

Велика подяка п. qeren за зведення української доріжки
Український постер kvvdvd



Золотий реліз (завантажене не впливає на рейтинг)
 Трекер:    Зареєстрований   

Завантажити / скачати фільм українською



відео для новачків



 Зареєстрований:   2019-02-07 03:24
 Розмір:   15.1 GB 
 Оцінка фільму:   9.6/10 (Голосів: 9)
   
Інші релізи
   Суддя Дредд / Judge Dredd (1995) 1080p Ukr/Eng | Sub Eng kvvdvd  1 / 0   8.49 GB   2017-01-19 13:52 
   Суддя Дредд / Judge Dredd (1995) Ukr/Eng | Sub Eng [email protected]  1 / 0   1.32 GB   2013-01-09 23:56 
   Суддя Дредд / Judge Dredd (1995) 720p Ukr/Eng | Sub Eng SuperContik  2 / 0   5.08 GB   2012-02-03 23:46 
   Суддя Дредд / Judge Dredd (1995) JACKUS  1 / 0   1.46 GB   2010-09-05 15:52 
EvGaS 
Відео Гуртом - субтитрування
Відео Гуртом - субтитрування


З нами з: 27.02.12
Востаннє: 19.04.19
Повідомлень: 5599

2019-02-07 05:35  
У кіно один з найреалістичніших роботів.
Все тому, що для фільму була використана справжня реквізитна модель замість компграфіки, яка й нині виглядає у подібних випадках …мультяшно.

Ну й ще одного з пінгвінів з Мадагаскара, схоже, назвали на честь Ріко саме з цього кіно. Якось характери схожі дуже. ))

[email protected] 
VIP


З нами з: 25.03.17
Востаннє: 18.04.19
Повідомлень: 292

2019-03-23 10:22  
Якість просто супер
Ваш часовий пояс: GMT + 2 Години

Нова тема   Відповісти