Суспірія / Suspiria (2018) Remux 1080p Ukr/Eng | Sub Eng

Нові коментарі

Нова тема   Відповісти
Автор Повідомлення
Anonymous 







2019-02-07 01:08  
Суспірія / Suspiria (2018) Remux 1080p Ukr/Eng | Sub Eng

Суспірія / Suspiria (2018) Remux 1080p Ukr/Eng | Sub Eng


Жанр: детектив, трилер, жахи, фентезі
Країна: США, Італія





Кінокомпанія: Frenesy Film Company,Videa,First Sun
Режисер: Лука Ґуаданьїно
Актори: Дакота Джонсон, Тільда Суінтон, Міа Ґот, Хлоя Ґрейс Морец, Малгожата Бела, Ангела Вінклер, Рене Саутендейк, Сільві Тестю, Інгрід Кавен, Єлена Фокіна

Сюжет:
С’юзі перебралася з США до німецького міста Берлін заради однієї мети: стати ученицею прославленої балетної школи, до якої чимало хто хоче потрапити. Цю танцювальну трупу знають по всім світі, але далеко не всім відомо, що ховається за дверима цього начебто пристойного закладу. А там відбуваються дуже дивні та навіть темні справи. Осьо й С’юзі про це дізналася — і дівчині не дуже хочеться загинути чи мати якийсь стосунок до чорної магії. Але вона усвідомлює, що буде наступною жертвою цієї академії. Врятувати С’юзі може лише розгадка таємниці цього місця — місця відьомського шабашу.


Тривалість: 02:32:10
Якість: Remux
Відео:
кодек:
розмір кадру: 1920x1080
бітрейт: ~22035 кб/с

Аудіо # 1:
мова: українська
переклад: професійний дубльований
кодек: 2.0
бітрейт: 192 кб/с

Аудіо # 2:
мова: англійська
переклад: оригінал
кодек: 5.1
бітрейт: 640 кб/с

Аудіо # 3 :
мова: англійська
переклад: оригінал
кодек: TrueHD 5.1
бітрейт: 3111 кб/с

Субтитри:
мова: англійська
тип: програмні (м'які)
формат: *.srt
Info
Код:
General
Complete name                            : Suspiria (2018) Remux 1080p [UKR_ENG] [ViDeO_Hurtom].
Format                                   :
Format version                           : Version 4
File size                                : 27.6 GiB
Duration                                 : 2 h 32 min
Overall bit rate mode                    : Variable
Overall bit rate                         : 26.0 Mb/s
Movie name                               : Suspiria (2018) Remux 1080p [UKR_ENG] [ViDeO_Hurtom].
Encoded date                             : UTC 2019-02-07 21:26:04
Writing application                      : v30.1.0 ('Forever And More') 64-bit
Writing library                          : libebml v1.3.6 + v1.4.9

Video
ID                                       : 1
Format                                   : AVC
Format/Info                              : Advanced Video Codec
Format profile                           : [email protected]
Format settings                          : CABAC / 4 Ref Frames
Format settings, CABAC                   : Yes
Format settings, RefFrames               : 4 frames
Codec ID                                 : V_MPEG4/ISO/AVC
Duration                                 : 2 h 32 min
Bit rate mode                            : Variable
Bit rate                                 : 21.9 Mb/s
Maximum bit rate                         : 28.0 Mb/s
Width                                    : 1 920 pixels
Height                                   : 1 080 pixels
Display aspect ratio                     : 16:9
Frame rate mode                          : Constant
Frame rate                               : 24.000 FPS
Color space                              : YUV
Chroma subsampling                       : 4:2:0
Bit depth                                : 8 bits
Scan type                                : Progressive
Bits/(Pixel*Frame)                       : 0.441
Stream size                              : 23.3 GiB (85%)
Language                                 : English
Default                                  : Yes
Forced                                   : No

Audio #1
ID                                       : 2
Format                                   : AC-3
Format/Info                              : Audio Coding 3
Commercial name                          : Dolby Digital
Codec ID                                 : A_AC3
Duration                                 : 2 h 32 min
Bit rate mode                            : Constant
Bit rate                                 : 192 kb/s
Channel(s)                               : 2 channels
Channel layout                           : L R
Sampling rate                            : 48.0 kHz
Frame rate                               : 31.250 FPS (1536 SPF)
Bit depth                                : 16 bits
Compression mode                         : Lossy
Stream size                              : 209 MiB (1%)
Title                                    : , 2 ch, 192 Кбт/с
Language                                 : Ukrainian
Service kind                             : Complete Main
Default                                  : Yes
Forced                                   : No

Audio #2
ID                                       : 3
Format                                   : AC-3
Format/Info                              : Audio Coding 3
Commercial name                          : Dolby Digital
Codec ID                                 : A_AC3
Duration                                 : 2 h 32 min
Bit rate mode                            : Constant
Bit rate                                 : 640 kb/s
Channel(s)                               : 6 channels
Channel layout                           : L R C LFE Ls Rs
Sampling rate                            : 48.0 kHz
Frame rate                               : 31.250 FPS (1536 SPF)
Bit depth                                : 16 bits
Compression mode                         : Lossy
Stream size                              : 697 MiB (2%)
Title                                    : , 6 ch, 640 Кбт/с
Language                                 : English
Service kind                             : Complete Main
Default                                  : No
Forced                                   : No

Audio #3
ID                                       : 4
Format                                   : MLP FBA 16-ch
Format/Info                              : Meridian Lossless Packing FBA with 16-channel presentation
Commercial name                          : Dolby TrueHD with Dolby Atmos
Codec ID                                 : A_TRUEHD
Duration                                 : 2 h 32 min
Bit rate mode                            : Variable
Bit rate                                 : 3 111 kb/s
Maximum bit rate                         : 4 836 kb/s
Channel(s)                               : 8 channels
Channel layout                           : L R C LFE Ls Rs Lb Rb
Sampling rate                            : 48.0 kHz
Frame rate                               : 1 200.000 FPS (40 SPF)
Compression mode                         : Lossless
Stream size                              : 3.31 GiB (12%)
Title                                    : TrueHD, 6 ch, 3111 Кбт/с
Language                                 : English
Default                                  : No
Forced                                   : No
Number of dynamic objects                : 11
Bed channel count                        : 1 channel
Bed channel configuration                : LFE

Text
ID                                       : 5
Format                                   : UTF-8
Codec ID                                 : S_TEXT/UTF8
Codec ID/Info                            : UTF-8 Plain Text
Duration                                 : 2 h 31 min
Bit rate                                 : 33 b/s
Count of elements                        : 1604
Stream size                              : 36.8 KiB (0%)
Title                                    : SDH
Language                                 : English
Default                                  : No
Forced                                   : No
Скріншоти








Підтримати купівлю інших фільмів можна тут.


Подяка пану AngryBirdsUA за доріжку, та пану 11FrYkT за допомогу в створенні релізу

Джерело:
Особиста оцінка: 0 - не дивився


Золотий реліз (завантажене не впливає на рейтинг)
 Трекер:    Зареєстрований   

Завантажити / скачати фільм українською



відео для новачків



 Зареєстрований:   2019-02-09 18:50
 Розмір:   27.59 GB 
 Оцінка фільму:   7.9/10 (Голосів: 15)
   
Інші релізи
   Суспірія / Suspiria (2018) 720p Ukr/Eng | Sub Eng 11FrYkT  4 / 0   5.21 GB   2019-02-17 14:20 
   Суспірія / Suspiria (2018) AVC Ukr/Eng | Sub Eng 11FrYkT  3 / 0   2.75 GB   2019-02-17 12:04 
   Суспірія / Suspiria (2018) 1080p Ukr/Eng | Sub Eng antik_2008  2 / 0   17.33 GB   2019-02-07 23:27 
   Суспірія / Suspiria (2018) Ukr/Eng antik_2008  5 / 0   2.39 GB   2019-02-07 20:24 
   Суспірія / Suspiria (2018) antik_2008  5 / 0   1.53 GB   2019-02-07 19:58 
bot 
робот


З нами з: 30.09.07
Востаннє: 26.05.05
Повідомлень: 22280

2019-02-09 18:50  
Тему перенесено з Анонси релізів до форуму Фільми в HD


antik_2008

O_omarella! 
Свій


З нами з: 14.06.13
Востаннє: 13.10.19
Повідомлень: 132

2019-09-15 00:31  
Не зайшло.
Ваш часовий пояс: GMT + 2 Години

Нова тема   Відповісти