Джиперс Кріперс 2 / Jeepers Creepers II (2003) AVC Ukr/Eng | Sub Eng

Нові коментарі

Нова тема   Відповісти
Автор Повідомлення
staf777 
Відео Гуртом - підтримка та поширення
Відео Гуртом - підтримка та поширення


З нами з: 16.11.16
Востаннє: 23.04.19
Повідомлень: 2285

2019-02-06 11:24  
Джиперс Кріперс 2 / Jeepers Creepers II (2003) AVC Ukr/Eng | Sub Eng

Джиперс Кріперс 2 / Jeepers Creepers II (2003) AVC Ukr/Eng | Sub Eng
Альтернативні постери:

Джиперс Кріперс 2 / Jeepers Creepers II (2003) AVC Ukr/Eng | Sub Eng

Джиперс Кріперс 2 / Jeepers Creepers II (2003) AVC Ukr/Eng | Sub Eng


Жанр: жахи, трилер
Країна: США



Кінокомпанія: American Zoetrope Pictures
Режисер: Віктор Сальва
Актори: Рей Вайз, Джонатан Брек, Гарікаї Мутамбірва, Ерік Неннінгер, Ніккі Ейкокс, Тревіс Шиффнер, Лєна Кардвелл, Біллі Аарон Браун, Марі Дельфіно, Даян Делано

Сюжет:
Раз на 23 роки зловісний крилатий монстр пробуджується від довгого сну, щоб 23 дні насичуватися людською плоттю і страхом своїх жертв. Під кінець останнього дня його кошмарного бенкету, і сьогодні древнє невідоме зло чекає багатий улов - спортивна команда і чарівні вболівальниці, що повертаються з тріумфальної гри. Вони одні в зламаному автобусі на пустельному шосе, де не працюють мобільні телефони і нізвідки чекати допомоги. На заході сонця ненажерливий виплодок пекла почне свою криваву вакханалію. Чи зможе його видобуток дожити до ранку, або ця невразлива тварюка вб'є обійнятих жахом тінейджерів одного за одним?


Тривалість: 01:44:04
Якість: AVC
Відео:
кодек:
розмір кадру: 1024x434
бітрейт: 2800 кб/с

Аудіо # 1:
мова: українська
переклад: багатоголосий закадровий
кодек: 5.1
бітрейт: 448 кб/с

Аудіо # 2:
мова: англійська
переклад: оригінал
кодек: 5.1
бітрейт: 448 кб/с

Джерело озвучення:


Субтитри:
мова: англійська
тип: програмні (м'які)
формат: *.srt
Info
General
Unique ID : 18611758553996214453873402505452035841 (0xE007E8B35E7A42AAA59BDF1DD1B9F01)
Complete name : S:\» Відео » Українське озвучення » Фільми-AVC\Жахи\Jeepers Creepers II (2002) AVC [UKR][ENG][Hurtom].
Format :
Format version : Version 4
File size : 2.69 GiB
Duration : 1 h 44 min
Overall bit rate : 3 696 kb/s
Movie name : Jeepers Creepers II (2002) AVC [UKR][ENG][Hurtom]
Encoded date : UTC 2019-02-06 08:10:46
Writing application : v30.1.0 ('Forever And More') 64-bit
Writing library : libebml v1.3.6 + v1.4.9
Cover : Yes
Attachments : cover.jpg

Video
ID : 1
Format : AVC
Format/Info : Advanced Video Codec
Format profile : [email protected]
Format settings : CABAC / 9 Ref Frames
Format settings, CABAC : Yes
Format settings, ReFrames : 9 frames
Codec ID : V_MPEG4/ISO/AVC
Duration : 1 h 44 min
Bit rate : 2 800 kb/s
Width : 1 024 pixels
Height : 434 pixels
Display aspect ratio : 2.35:1
Frame rate mode : Constant
Frame rate : 23.976 (24000/1001) FPS
Color space : YUV
Chroma subsampling : 4:2:0
Bit depth : 8 bits
Scan type : Progressive
Bits/(Pixel*Frame) : 0.263
Stream size : 2.03 GiB (76%)
Writing library : core 133 r2334 a3ac64b
Encoding settings : cabac=1 / ref=9 / deblock=1:-2:-2 / analyse=0x3:0x133 / me=umh / subme=11 / psy=1 / psy_rd=1.00:0.20 / mixed_ref=1 / me_range=48 / chroma_me=1 / trellis=2 / 8x8dct=1 / cqm=0 / deadzone=21,11 / fast_pskip=0 / chroma_qp_offset=-3 / threads=6 / lookahead_threads=1 / sliced_threads=0 / nr=0 / decimate=0 / interlaced=0 / bluray_compat=0 / constrained_intra=0 / bframes=10 / b_pyramid=2 / b_adapt=2 / b_bias=0 / direct=3 / weightb=1 / open_gop=0 / weightp=2 / keyint=240 / keyint_min=23 / scenecut=40 / intra_refresh=0 / rc=2pass / mbtree=0 / bitrate=2800 / ratetol=1.0 / qcomp=0.60 / qpmin=0 / qpmax=69 / qpstep=4 / cplxblur=20.0 / qblur=0.5 / ip_ratio=1.40 / pb_ratio=1.30 / aq=1:1.00
Language : English
Default : Yes
Forced : No

Audio #1
ID : 2
Format : AC-3
Format/Info : Audio Coding 3
Commercial name : Dolby Digital
Codec ID : A_AC3
Duration : 1 h 43 min
Bit rate mode : Constant
Bit rate : 448 kb/s
Channel(s) : 6 channels
Channel layout : L R C LFE Ls Rs
Sampling rate : 48.0 kHz
Frame rate : 31.250 FPS (1536 SPF)
Bit depth : 16 bits
Compression mode : Lossy
Stream size : 333 MiB (12%)
Title : MVO (ТЕТ)
Language : Ukrainian
Service kind : Complete Main
Default : Yes
Forced : Yes

Audio #2
ID : 3
Format : AC-3
Format/Info : Audio Coding 3
Commercial name : Dolby Digital
Codec ID : A_AC3
Duration : 1 h 44 min
Bit rate mode : Constant
Bit rate : 448 kb/s
Channel(s) : 6 channels
Channel layout : L R C LFE Ls Rs
Sampling rate : 48.0 kHz
Frame rate : 31.250 FPS (1536 SPF)
Bit depth : 16 bits
Compression mode : Lossy
Stream size : 333 MiB (12%)
Language : English
Service kind : Complete Main
Default : No
Forced : No

Text
ID : 4
Format : UTF-8
Codec ID : S_TEXT/UTF8
Codec ID/Info : UTF-8 Plain Text
Duration : 1 h 36 min
Bit rate : 39 b/s
Count of elements : 945
Stream size : 27.7 KiB (0%)
Language : English
Default : No
Forced : No

Menu
00:00:00.000 : :Chapter 01
00:04:57.046 : :Chapter 02
00:06:16.167 : :Chapter 03
00:08:02.815 : :Chapter 04
00:12:59.570 : :Chapter 05
00:15:24.381 : :Chapter 06
00:18:03.582 : :Chapter 07
00:20:42.449 : :Chapter 08
00:23:17.020 : :Chapter 09
00:26:26.876 : :Chapter 10
00:28:59.988 : :Chapter 11
00:30:46.845 : :Chapter 12
00:32:29.197 : :Chapter 13
00:35:43.349 : :Chapter 14
00:39:45.841 : :Chapter 15
00:42:34.718 : :Chapter 16
00:45:32.396 : :Chapter 17
00:48:45.339 : :Chapter 18
00:50:50.630 : :Chapter 19
00:55:25.739 : :Chapter 20
00:57:42.834 : :Chapter 21
01:00:07.395 : :Chapter 22
01:05:35.431 : :Chapter 23
01:09:30.958 : :Chapter 24
01:11:22.945 : :Chapter 25
01:13:01.543 : :Chapter 26
01:16:24.871 : :Chapter 27
01:20:44.923 : :Chapter 28
01:24:45.246 : :Chapter 29
01:29:41.417 : :Chapter 30
01:33:48.748 : :Chapter 31
01:38:02.751 : :Chapter 32
01:44:04.029 : :Chapter 33






Джерело: & Інше
Українізація постерів - Ham_R, hellforces
Особиста оцінка: 8 - мені сподобалося
Джиперс Кріперс 2 / Jeepers Creepers II (2003) AVC Ukr/Eng | Sub Eng Джиперс Кріперс 2 / Jeepers Creepers II (2003) AVC Ukr/Eng | Sub Eng




Срібний реліз (на рейтинг впливає 50% завантаженого)
 Трекер:    Зареєстрований   

Завантажити / скачати фільм українською



відео для новачків



 Зареєстрований:   2019-02-07 12:32
 Розмір:   2.69 GB 
 Оцінка фільму:   6.4/10 (Голосів: 5)
   
Ham_R 
Відео Гуртом - дизайнер
Відео Гуртом - дизайнер


З нами з: 23.04.13
Востаннє: 23.04.19
Повідомлень: 94

2019-02-06 17:55  

Robar III 
Забанено
Забанено


З нами з: 18.08.11
Востаннє: 03.04.19
Повідомлень: 3883

2019-02-06 19:51  
Хто бачив, як вам фільм?
Neo-Studio 
Новенький


З нами з: 22.04.12
Востаннє: 16.04.19
Повідомлень: 4

2019-02-07 00:32  
Цитата:
Хто бачив, як вам фільм?

Фільм гарний, дивився його ще на відику, в авторському перекладі.Рекомендую передивитись усі частини.

bot 
робот


З нами з: 30.09.07
Востаннє: 26.05.05
Повідомлень: 21237

2019-02-07 12:32  
Тему перенесено з Анонси релізів до форуму Фільми


staf777

Ваш часовий пояс: GMT + 2 Години

Нова тема   Відповісти