Армія темряви (Зловісні мерці 3) [Режисерська версія] / Army of Darkness [Director's Cut] (1992) Remux 1080p [Collector's Edition] 3xUkr/Eng | Sub Eng

Нові коментарі

Нова тема   Відповісти
Автор Повідомлення
MakRA 
VIP


З нами з: 10.11.18
Востаннє: 21.11.19
Повідомлень: 535

2019-02-06 01:20  
Армія темряви (Зловісні мерці 3) [Режисерська версія] / Army of Darkness [Director's Cut] (1992) Remux 1080p [Collector's Edition] 3xUkr/Eng | Sub Eng

Українські постери:





Жанр: комедія, жахи, фентезі
Країна: США



Кінокомпанія: Dino De Laurentiis Company, Renaissance Pictures, Universal Pictures
Режисер: Сем Реймі [Sam Raimi]
Актори: Брюс Кемпбелл [Bruce Campbell], Ембет Девідц [Embeth Davidtz], Маркус Гілберт [Marcus Gilbert], Йєн Еберкромбі [Ian Abercrombie], Бріджет Фонда [Bridget Fonda], Тед Реймі [Ted Raimi], Річард Гроув [Richard Grove], Тімоті Патрік Куілл [Timothy Patrick Quill], Майкл Ерл Рейд [Michael Earl Reid], Дек Андерсон [Deke Anderson]

Сюжет:
Після провалу в міжчасовий портал Еш Вільямс потрапляє у середньовічню Англію. Озброєний дробовиком і бензопилкою, він завойовує довіру короля, витримавши кілька серйозних випробувань. Придворний мудрець розуміє, що Еш, один з тих, про кого йдеться в книзі мертвих "Некрономікон". Король Артур хоче, щоб Еш повернув їм "Некрономікон", перш ніж вони повернуть його назад в свій час. Головне правильно вимовити три магічні слова. Але Еш помиляється...


Тривалість: 01:36:24
Якість: Remux 1080p [Collector's Edition]
Відео:
кодек:
розмір кадру: 1920 х 1080
бітрейт: 35.0 Mб/с

Аудіо # 1:
мова: українська
переклад: професійний дубльований
кодек: 2.0
бітрейт: 192 kb/s

Аудіо # 2:
мова: українська
переклад: багатоголосий закадровий
кодек: 2.0
бітрейт: 192 kb/s

Аудіо # 3:
мова: українська
переклад: двоголосий закадровий
кодек: 2.0
бітрейт: 192 kb/s
примітка: приблизно 5 хвилин кінцівки було вирізано на ТБ, тому на цей фрагмент було накладено озвучення від каналу АМС

Аудіо # 4:
мова: англійська
переклад: оригінал
кодек: -HD MA 5.1
бітрейт: 3609 kb/s

Аудіо # 5:
мова: англійська
переклад: оригінал
кодек: 5.1
бітрейт: 448 kb/s

Аудіо # 6:
мова: англійська
переклад: коментарі режисера Сема Реймі, сценариста Айвана Реймі і актора Брюса Кемпбелла
кодек: 2.0
бітрейт: 192 kb/s

Субтитри # 1: (Forced) (на неозвучені фрагменти)
мова: українська
тип: програмні (м'які)
формат: *.srt

Субтитри # 2: (Full)
мова: англійська
тип: програмні (м'які)
формат: *.srt

Субтитри # 3: (SDH)
мова: англійська
тип: програмні (м'які)
формат: *.srt

Субтитри # 4: (SDH)
мова: англійська
тип: пререндерні
формат: *.pgs

Збережено оригінальні розділи, як на Blu-ray.
Info
General
Unique ID : 303091455849460480814279373688477527523 (0xE4054A839E59A9DA95AC4BF3D5432DE3)
Complete name : I:\+ Фільми в HD\жахи, комедія\Evil Dead. Collection Remux 1080p\Army of Darkness [Director's Cut] (1992) Remux 1080p [Collector's Edition] 3xUkrEng Sub Eng [Hurtom].
Format :
Format version : Version 4
File size : 26.3 GiB
Duration : 1 h 36 min
Overall bit rate mode : Variable
Overall bit rate : 39.1 Mb/s
Movie name : Армія темряви (Зловісні мерці 3) [Режисерська версія] / Army of Darkness [Director's Cut] (1992) Remux 1080p [Collector's Edition] 3xUkr/Eng | Sub Eng [Hurtom]
Encoded date : UTC 2019-11-10 19:52:06
Writing application : v25.0.0 ('Prog Noir') 64-bit
Writing library : libebml v1.3.6 + v1.4.9
Cover : Yes
Attachments : cover.png

Video
ID : 1
Format : AVC
Format/Info : Advanced Video Codec
Format profile : [email protected]
Format settings : CABAC / 4 Ref Frames
Format settings, CABAC : Yes
Format settings, Reference fra : 4 frames
Codec ID : V_MPEG4/ISO/AVC
Duration : 1 h 36 min
Bit rate mode : Constant
Bit rate : 35.0 Mb/s
Width : 1 920 pixels
Height : 1 080 pixels
Display aspect ratio : 16:9
Frame rate mode : Constant
Frame rate : 23.976 (24000/1001) FPS
Color space : YUV
Chroma subsampling : 4:2:0
Bit depth : 8 bits
Scan type : Progressive
Bits/(Pixel*Frame) : 0.704
Stream size : 23.1 GiB (88%)
Title : Army of Darkness [Director's Cut] (1992) Remux 1080p [Collector's Edition] 3xUkr/Eng | Sub Eng [Hurtom]
Language : Ukrainian
Default : Yes
Forced : Yes

Audio #1
ID : 2
Format : AC-3
Format/Info : Audio Coding 3
Commercial name : Dolby Digital
Codec ID : A_AC3
Duration : 1 h 36 min
Bit rate mode : Constant
Bit rate : 192 kb/s
Channel(s) : 2 channels
Channel layout : L R
Sampling rate : 48.0 kHz
Frame rate : 31.250 FPS (1536 SPF)
Bit depth : 16 bits
Compression mode : Lossy
Stream size : 132 MiB (0%)
Title : DUB [НЛО-ТБ] 2.0
Language : Ukrainian
Service kind : Complete Main
Default : Yes
Forced : Yes

Audio #2
ID : 3
Format : AC-3
Format/Info : Audio Coding 3
Commercial name : Dolby Digital
Codec ID : A_AC3
Duration : 1 h 36 min
Bit rate mode : Constant
Bit rate : 192 kb/s
Channel(s) : 2 channels
Channel layout : L R
Sampling rate : 48.0 kHz
Frame rate : 31.250 FPS (1536 SPF)
Bit depth : 16 bits
Compression mode : Lossy
Stream size : 132 MiB (0%)
Title : MVO [AMC] 2.0
Language : Ukrainian
Service kind : Complete Main
Default : No
Forced : No

Audio #3
ID : 4
Format : AC-3
Format/Info : Audio Coding 3
Commercial name : Dolby Digital
Codec ID : A_AC3
Duration : 1 h 36 min
Bit rate mode : Constant
Bit rate : 192 kb/s
Channel(s) : 2 channels
Channel layout : L R
Sampling rate : 48.0 kHz
Frame rate : 31.250 FPS (1536 SPF)
Bit depth : 16 bits
Compression mode : Lossy
Stream size : 132 MiB (0%)
Title : DVO [ICTV] 2.0
Language : Ukrainian
Service kind : Complete Main
Default : No
Forced : No

Audio #4
ID : 5
Format : XLL
Format/Info : Digital Theater Systems
Commercial name : -HD Master Audio
Codec ID : A_DTS
Duration : 1 h 36 min
Bit rate mode : Variable
Bit rate : 3 609 kb/s
Channel(s) : 6 channels
Channel layout : C L R Ls Rs LFE
Sampling rate : 48.0 kHz
Frame rate : 93.750 FPS (512 SPF)
Bit depth : 24 bits
Compression mode : Lossless
Stream size : 2.43 GiB (9%)
Title : Original -HD MA 5.1
Language : English
Default : No
Forced : No

Audio #5
ID : 6
Format : AC-3
Format/Info : Audio Coding 3
Commercial name : Dolby Digital
Codec ID : A_AC3
Duration : 1 h 36 min
Bit rate mode : Constant
Bit rate : 448 kb/s
Channel(s) : 6 channels
Channel layout : L R C LFE Ls Rs
Sampling rate : 48.0 kHz
Frame rate : 31.250 FPS (1536 SPF)
Bit depth : 16 bits
Compression mode : Lossy
Stream size : 309 MiB (1%)
Title : Original 5.1
Language : English
Service kind : Complete Main
Default : No
Forced : No

Audio #6
ID : 7
Format : AC-3
Format/Info : Audio Coding 3
Commercial name : Dolby Digital
Codec ID : A_AC3
Duration : 1 h 36 min
Bit rate mode : Constant
Bit rate : 192 kb/s
Channel(s) : 2 channels
Channel layout : L R
Sampling rate : 48.0 kHz
Frame rate : 31.250 FPS (1536 SPF)
Bit depth : 16 bits
Compression mode : Lossy
Stream size : 132 MiB (0%)
Title : Original | Commentary Director Sam Raimi, Writer Ivan Raimi & Actor Bruce Campbell
Language : English
Service kind : Complete Main
Default : No
Forced : No

Text #1
ID : 8
Format : UTF-8
Codec ID : S_TEXT/UTF8
Codec ID/Info : UTF-8 Plain Text
Duration : 57 min 40 s
Bit rate : 10 b/s
Count of elements : 121
Stream size : 4.58 KiB (0%)
Title : Ukr ()Forced)
Language : Ukrainian
Default : Yes
Forced : Yes

Text #2
ID : 9
Format : UTF-8
Codec ID : S_TEXT/UTF8
Codec ID/Info : UTF-8 Plain Text
Duration : 1 h 30 min
Bit rate : 28 b/s
Count of elements : 643
Stream size : 18.9 KiB (0%)
Title : Eng (Full) SRT
Language : English
Default : No
Forced : No

Text #3
ID : 10
Format : UTF-8
Codec ID : S_TEXT/UTF8
Codec ID/Info : UTF-8 Plain Text
Duration : 1 h 30 min
Bit rate : 32 b/s
Count of elements : 887
Stream size : 21.7 KiB (0%)
Title : Eng (SDH) SRT
Language : English
Default : No
Forced : No

Text #4
ID : 11
Format : PGS
Muxing mode : zlib
Codec ID : S_HDMV/PGS
Codec ID/Info : Picture based subtitle format used on BDs/HD-DVDs
Duration : 1 h 30 min
Bit rate : 20.0 kb/s
Count of elements : 1627
Stream size : 12.9 MiB (0%)
Title : Eng (SDH) PGS
Language : English
Default : No
Forced : No

Menu
00:00:00.000 : en:Chapter 1
00:03:14.069 : en:Chapter 2
00:09:24.440 : en:Chapter 3
00:19:25.500 : en:Chapter 4
00:23:13.603 : en:Chapter 5
00:25:52.804 : en:Chapter 6
00:31:41.069 : en:Chapter 7
00:41:40.669 : en:Chapter 8
00:50:15.768 : en:Chapter 9
00:54:57.591 : en:Chapter 10
00:59:03.998 : en:Chapter 11
01:01:53.466 : en:Chapter 12
01:12:45.410 : en:Chapter 13
01:23:39.940 : en:Chapter 14
01:26:31.528 : en:Chapter 15
01:30:57.294 : en:Chapter 16
01:36:23.746 : en:Chapter 17
Скріншоти
Джерело: &
Над доріжками працювали: Bohdan237, Sando7, drop_plz, Senou Natsuru, patriot2305
За українізовані постери подяка п. jeison
Особиста оцінка: 10 - без зайвих вагань рекомендую всім!


Золотий реліз (завантажене не впливає на рейтинг)
 Трекер:    Зареєстрований   

Завантажити / скачати фільм українською



відео для новачків



 Зареєстрований:   2019-11-10 22:58
 Розмір:   26.34 GB 
 Оцінка фільму:   9.4/10 (Голосів: 21)
   
Kazus78 
Новенький


З нами з: 13.01.17
Востаннє: 17.11.19
Повідомлень: 7

2019-02-08 23:37  
В свій час була прикольна кіношкаHappy
Lyolic 
VIP


З нами з: 04.08.09
Востаннє: 21.11.19
Повідомлень: 394

2019-02-09 02:50  
Kazus78
Та я і зараз із задоволенням передивився Happy

kinofantastic 
Новенький


З нами з: 04.08.16
Востаннє: 20.11.19
Повідомлень: 5

2019-02-09 17:23  
Класика
MakRA 
VIP


З нами з: 10.11.18
Востаннє: 21.11.19
Повідомлень: 535

2019-05-21 11:40  
Планується оновлення релізу.
MakRA 
VIP


З нами з: 10.11.18
Востаннє: 21.11.19
Повідомлень: 535

2019-07-11 20:00  
Реліз оновлено. Додано дубляж від НЛО-ТБ
MakRA 
VIP


З нами з: 10.11.18
Востаннє: 21.11.19
Повідомлень: 535

2019-11-10 23:03  
Реліз оновлено 10.11.2019 до Remux 1080p [Collector's Edition]
Ваш часовий пояс: GMT + 2 Години

Нова тема   Відповісти