Армія темряви (Зловісні мерці 3) [Режисерська версія] / Army of Darkness [Director's Cut] (1992) Remux 1080p 2xUkr/Eng | Sub Eng

Нові коментарі

Нова тема   Відповісти
Автор Повідомлення
MakRA 
Поважний учасник


З нами з: 11.11.18
Востаннє: 20.04.19
Повідомлень: 174

2019-02-06 02:20  
Армія темряви (Зловісні мерці 3) [Режисерська версія] / Army of Darkness [Director's Cut] (1992) Remux 1080p 2xUkr/Eng | Sub Eng

Армія темряви (Зловісні мерці 3) [Режисерська версія] / Army of Darkness [Director's Cut] (1992) Remux 1080p 2xUkr/Eng | Sub Eng
Українські постери:





Жанр: комедія, жахи, фентезі
Країна: США



Кінокомпанія: Dino De Laurentiis Company, Renaissance Pictures, Universal Pictures
Режисер: Сем Реймі [Sam Raimi]
Актори: Брюс Кемпбелл [Bruce Campbell], Ембет Девідц [Embeth Davidtz], Маркус Гілберт [Marcus Gilbert], Йєн Еберкромбі [Ian Abercrombie], Бріджет Фонда [Bridget Fonda], Тед Реймі [Ted Raimi], Річард Гроув [Richard Grove], Тімоті Патрік Куілл [Timothy Patrick Quill], Майкл Ерл Рейд [Michael Earl Reid], Дек Андерсон [Deke Anderson]

Сюжет:
Після провалу в міжчасовий портал Еш Вільямс потрапляє у середньовічню Англію. Озброєний дробовиком і бензопилкою, він завойовує довіру короля, витримавши кілька серйозних випробувань. Придворний мудрець розуміє, що Еш, один з тих, про кого йдеться в книзі мертвих "Некрономікон". Король Артур хоче, щоб Еш повернув їм "Некрономікон", перш ніж вони повернуть його назад в свій час. Головне правильно вимовити три магічні слова. Але Еш помиляється...


Тривалість: 01:36:22
Якість: Remux 1080p
Відео:
кодек:
розмір кадру: 1920 х 1080
бітрейт: 18 Мб/с

Аудіо # 1:
мова: українська
переклад: багатоголосий закадровий [AMC]
кодек: 2.0
бітрейт: 192 kb/s

Аудіо # 2:
мова: українська
переклад: двоголосий закадровий [ICTV]
кодек: 2.0
бітрейт: 192 kb/s
примітка: приблизно 5 хвилин кінцівки було вирізано на ТБ, тому на цей фрагмент було накладено озвучення від каналу АМС

Аудіо # 3:
мова: англійська
переклад: оригінал
кодек: -HD MA 5.1
бітрейт: 2048 kb/s

Аудіо # 4:
мова: англійська
переклад: оригінал
кодек: 5.1
бітрейт: 448 kb/s

Аудіо # 5:
мова: англійська
переклад: коментарі режисера Сема Реймі, сценариста Айвана Реймі і актора Брюса Кемпбелла
кодек: 2.0
бітрейт: 192 kb/s

Субтитри:
мова: англійська
тип: пререндерні
формат: *.pgs
Info
General
Unique ID : 285810037530298223249689834691508474382 (0xD70502CED6A3E9D1FE176D1EF4BE920E)
Complete name : F:\Жахи, комедія\Army of Darkness [Director's Cut] (1992) Remux 1080p 2xUkrEng Sub Eng [Hurtom].
Format :
Format version : Version 4 / Version 2
File size : 14.2 GiB
Duration : 1 h 36 min
Overall bit rate mode : Variable
Overall bit rate : 21.1 Mb/s
Encoded date : UTC 2019-02-05 20:56:49
Writing application : v25.0.0 ('Prog Noir') 64-bit
Writing library : libebml v1.3.6 + v1.4.9

Video
ID : 1
Format : AVC
Format/Info : Advanced Video Codec
Format profile : [email protected]
Format settings, CABAC : Yes
Format settings, RefFrames : 4 frames
Codec ID : V_MPEG4/ISO/AVC
Duration : 1 h 36 min
Bit rate mode : Variable
Bit rate : 18.0 Mb/s
Maximum bit rate : 32.0 Mb/s
Width : 1 920 pixels
Height : 1 080 pixels
Display aspect ratio : 16:9
Frame rate mode : Constant
Frame rate : 23.976 (24000/1001) FPS
Color space : YUV
Chroma subsampling : 4:2:0
Bit depth : 8 bits
Scan type : Progressive
Bits/(Pixel*Frame) : 0.362
Stream size : 12.1 GiB (85%)
Title : Army of Darkness [Director's Cut] (1992) Remux 1080p 2xUkr/Eng | Sub Eng
Language : Ukrainian
Default : Yes
Forced : Yes
Color range : Limited
Color primaries : BT.709
Transfer characteristics : BT.709
Matrix coefficients : BT.709

Audio #1
ID : 2
Format : AC-3
Format/Info : Audio Coding 3
Format settings, Endianness : Big
Codec ID : A_AC3
Duration : 1 h 36 min
Bit rate mode : Constant
Bit rate : 192 kb/s
Channel(s) : 2 channels
Channel positions : Front: L R
Sampling rate : 48.0 kHz
Frame rate : 31.250 FPS (1536 SPF)
Bit depth : 16 bits
Compression mode : Lossy
Stream size : 132 MiB (1%)
Title : MVO [AMC]
Language : Ukrainian
Service kind : Complete Main
Default : Yes
Forced : Yes

Audio #2
ID : 3
Format : AC-3
Format/Info : Audio Coding 3
Format settings, Endianness : Big
Codec ID : A_AC3
Duration : 1 h 36 min
Bit rate mode : Constant
Bit rate : 192 kb/s
Channel(s) : 2 channels
Channel positions : Front: L R
Sampling rate : 48.0 kHz
Frame rate : 31.250 FPS (1536 SPF)
Bit depth : 16 bits
Compression mode : Lossy
Stream size : 132 MiB (1%)
Title : MVO [ICTV]
Language : Ukrainian
Service kind : Complete Main
Default : No
Forced : No

Audio #3
ID : 4
Format :
Format/Info : Digital Theater Systems
Format profile : MA / Core
Mode : 16
Format settings, Endianness : Big
Codec ID : A_DTS
Duration : 1 h 36 min
Bit rate mode : Variable / Constant
Bit rate : 2 048 kb/s / 1 509 kb/s
Channel(s) : 6 channels
Channel positions : Front: L C R, Side: L R, LFE
Sampling rate : 48.0 kHz
Frame rate : 93.750 FPS (512 SPF)
Bit depth : 16 bits
Compression mode : Lossless / Lossy
Stream size : 1.40 GiB (10%)
Title : Original
Language : English
Default : No
Forced : No

Audio #4
ID : 5
Format : AC-3
Format/Info : Audio Coding 3
Format settings, Endianness : Big
Codec ID : A_AC3
Duration : 1 h 36 min
Bit rate mode : Constant
Bit rate : 448 kb/s
Channel(s) : 6 channels
Channel positions : Front: L C R, Side: L R, LFE
Sampling rate : 48.0 kHz
Frame rate : 31.250 FPS (1536 SPF)
Bit depth : 16 bits
Compression mode : Lossy
Stream size : 309 MiB (2%)
Title : Original
Language : English
Service kind : Complete Main
Default : No
Forced : No

Audio #5
ID : 6
Format : AC-3
Format/Info : Audio Coding 3
Format settings, Endianness : Big
Codec ID : A_AC3
Duration : 1 h 36 min
Bit rate mode : Constant
Bit rate : 192 kb/s
Channel(s) : 2 channels
Channel positions : Front: L R
Sampling rate : 48.0 kHz
Frame rate : 31.250 FPS (1536 SPF)
Bit depth : 16 bits
Compression mode : Lossy
Stream size : 132 MiB (1%)
Title : Original | Commentary Director Sam Raimi, Writer Ivan Raimi & Actor Bruce Campbell
Language : English
Service kind : Complete Main
Default : No
Forced : No

Text
ID : 7
Format : PGS
Muxing mode : zlib
Codec ID : S_HDMV/PGS
Codec ID/Info : Picture based subtitle format used on BDs/HD-DVDs
Duration : 1 h 30 min
Bit rate : 13.1 kb/s
Count of elements : 1286
Stream size : 8.44 MiB (0%)
Title : Eng
Language : English
Default : No
Forced : No
Скріншоти
Джерело: &
Особиста оцінка: 10 - без зайвих вагань рекомендую всім!


Золотий реліз (завантажене не впливає на рейтинг)
 Трекер:    Зареєстрований   

Завантажити / скачати фільм українською



відео для новачків



 Зареєстрований:   2019-02-06 02:20
 Розмір:   14.21 GB 
 Оцінка фільму:   9.1/10 (Голосів: 12)
   
Kazus78 
Новенький


З нами з: 13.01.17
Востаннє: 01.04.19
Повідомлень: 5

2019-02-09 00:37  
В свій час була прикольна кіношкаHappy
Lyolic 
VIP


З нами з: 04.08.09
Востаннє: 19.04.19
Повідомлень: 351

2019-02-09 03:50  
Kazus78
Та я і зараз із задоволенням передивився Happy

kinofantastic 
Новенький


З нами з: 04.08.16
Востаннє: 19.04.19
Повідомлень: 5

2019-02-09 18:23  
Класика
Ваш часовий пояс: GMT + 2 Години

Нова тема   Відповісти