Вдови / Widows (2018) 1080p H.265 Ukr/Eng | Sub Ukr/Eng

Нові коментарі

Нова тема   Відповісти
Автор Повідомлення
Anonymous 







2019-02-06 00:11  
Вдови / Widows (2018) 1080p H.265 Ukr/Eng | Sub Ukr/Eng

Вдови / Widows (2018) 1080p H.265 Ukr/Eng | Sub Ukr/Eng


Жанр: драма, кримінальний, трилер
Країна: США, Велика Британія





Кінокомпанія: Film4, 20th Century Fox, New Regency Pictures
Режисер: Стів МакКвін
Актори: Віола Девіс, Мішель Родрігес, Елізабет Дебікі, Синтія Еріво, Колін Фаррелл, Брайан Тайрі Генрі, Деніел Калуя, Ліам Нісон, Керрі Кун, Роберт Дювалл

Сюжет:
У Чикаго настали дуже смутні часи, де кожен виживає як може. Деякі навіть роблять цей такий небезпечний крок у злочинний світ. Небезпечний він ще й тому, що назад вже нічого повернути буде неможливо. Після одного невдалого пограбування чотири жінки залишилися вдовами – їхніх чоловіків убили на справі. У цих жінок не залишилося нічого – тільки борги їхніх чоловіків. Це ж їх і об'єднує. У цьому світі, повному злочинності, бідності і корупції, ці жінки розуміють, що не можна бути слабкими, що треба диктувати свої правила. Вони вирішили закінчити те, що почали їхні чоловіки. І вони знайдуть тих, хто їх підставив.


Тривалість: 02:09:34
Якість: 1080p

Відео:
кодек: H.265 (HEVC)
розмір кадру: 1920x804
бітрейт: 6102 кб/с
бітова глибина: 10 біт

Аудіо # 1:
мова: українська
переклад: професійний дубльований
кодек: 5.1
бітрейт: 448 кб/с

Аудіо # 2:
мова: англійська
переклад: оригінал
кодек: 5.1
бітрейт: 640 кб/с

Джерело озвучення:


Субтитри (Forced, Full):
мова: українська
тип: програмні (м'які)
формат: *.srt

Субтитри (Full, SDH):
мова: англійська
тип: програмні (м'які)
формат: *.srt
Info
General
Complete name : Widows (2018) 1080p (HEVC) H.265 [UKR_ENG] [ViDeO_Hurtom].
Format :
Format version : Version 4
File size : 6.51 GiB
Duration : 2 h 9 min
Overall bit rate : 7 192 kb/s
Movie name : Widows (2018) 1080p (HEVC) H.265 [ukr_eng] [ViDeO_Hurtom]
Encoded date : UTC 2019-02-09 13:57:29
Writing application : v30.1.0 ('Forever And More') 64-bit
Writing library : libebml v1.3.6 + v1.4.9

Video
ID : 1
Format : HEVC
Format/Info : High Efficiency Video Coding
Format profile : Main [email protected]@High
Codec ID : V_MPEGH/ISO/HEVC
Duration : 2 h 9 min
Bit rate : 6 102 kb/s
Width : 1 920 pixels
Height : 804 pixels
Display aspect ratio : 2.40:1
Frame rate mode : Constant
Frame rate : 23.976 (24000/1001) FPS
Color space : YUV
Chroma subsampling : 4:2:0
Bit depth : 10 bits
Bits/(Pixel*Frame) : 0.165
Stream size : 5.52 GiB (85%)
Writing library : x265 2.9+9-f74003e88622:[Windows][GCC 8.2.0][64 bit] 10bit
Encoding settings : cpuid=1111039 / frame-threads=13 / numa-pools=12 / wpp / no-pmode / no-pme / no-psnr / no-ssim / log-level=3 / input-csp=1 / input-res=1920x804 / interlace=0 / total-frames=0 / level-idc=41 / high-tier=1 / uhd-bd=0 / ref=5 / allow-non-conformance / no-repeat-headers / annexb / no-aud / no-hrd / info / hash=0 / no-temporal-layers / no-open-gop / min-keyint=23 / keyint=240 / gop-lookahead=0 / bframes=8 / b-adapt=2 / b-pyramid / bframe-bias=0 / rc-lookahead=60 / lookahead-slices=5 / scenecut=40 / radl=0 / no-intra-refresh / ctu=64 / min-cu-size=8 / rect / amp / max-tu-size=32 / tu-inter-depth=1 / tu-intra-depth=1 / limit-tu=0 / rdoq-level=0 / dynamic-rd=0.00 / no-ssim-rd / signhide / no-tskip / nr-intra=0 / nr-inter=0 / no-constrained-intra / no-strong-intra-smoothing / max-merge=2 / limit-refs=3 / no-limit-modes / me=3 / subme=7 / merange=57 / temporal-mvp / weightp / weightb / no-analyze-src-pics / deblock=-3:-3 / no-sao / no-sao-non-deblock / rd=3 / no-early-skip / rskip / no-fast-intra / no-tskip-fast / no-cu-lossless / no-b-intra / no-splitrd-skip / rdpenalty=0 / psy-rd=2.00 / psy-rdoq=0.00 / no-rd-refine / no-lossless / cbqpoffs=0 / crqpoffs=0 / rc=crf / crf=19.5 / qcomp=0.70 / qpstep=4 / stats-write=0 / stats-read=0 / vbv-maxrate=50000 / vbv-bufsize=50000 / vbv-init=0.9 / crf-max=30.0 / crf-min=0.0 / ipratio=1.40 / pbratio=1.30 / aq-mode=2 / aq-strength=1.00 / cutree / zone-count=0 / no-strict-cbr / qg-size=32 / no-rc-grain / qpmax=69 / qpmin=0 / no-const-vbv / sar=1 / overscan=0 / videoformat=5 / range=0 / colorprim=1 / transfer=1 / colormatrix=1 / chromaloc=0 / display-window=0 / max-cll=0,0 / min-luma=0 / max-luma=1023 / log2-max-poc-lsb=8 / vui-timing-info / vui-hrd-info / slices=1 / no-opt-qp-pps / no-opt-ref-list-length-pps / no-multi-pass-opt-rps / scenecut-bias=0.05 / no-opt-cu-delta-qp / no-aq-motion / no-hdr / no-hdr-opt / no-dhdr10-opt / no-idr-recovery-sei / analysis-reuse-level=5 / scale-factor=0 / refine-intra=0 / refine-inter=0 / refine-mv=0 / no-limit-sao / ctu-info=0 / no-lowpass-dct / refine-mv-type=0 / copy-pic=1 / max-ausize-factor=1.0 / no-dynamic-refine / no-single-sei
Language : English
Default : Yes
Forced : No
Color range : Limited
Color primaries : BT.709
Transfer characteristics : BT.709
Matrix coefficients : BT.709

Audio #1
ID : 2
Format : AC-3
Format/Info : Audio Coding 3
Commercial name : Dolby Digital
Codec ID : A_AC3
Duration : 2 h 9 min
Bit rate mode : Constant
Bit rate : 448 kb/s
Channel(s) : 6 channels
Channel layout : L R C LFE Ls Rs
Sampling rate : 48.0 kHz
Frame rate : 31.250 FPS (1536 SPF)
Bit depth : 16 bits
Compression mode : Lossy
Stream size : 415 MiB (6%)
Title : АС3, 6 ch, 448 Кбт/с
Language : Ukrainian
Service kind : Complete Main
Default : Yes
Forced : No

Audio #2
ID : 3
Format : AC-3
Format/Info : Audio Coding 3
Commercial name : Dolby Digital
Codec ID : A_AC3
Duration : 2 h 9 min
Bit rate mode : Constant
Bit rate : 640 kb/s
Channel(s) : 6 channels
Channel layout : L R C LFE Ls Rs
Sampling rate : 48.0 kHz
Frame rate : 31.250 FPS (1536 SPF)
Bit depth : 16 bits
Compression mode : Lossy
Stream size : 593 MiB (9%)
Title : АС3, 6 ch, 640 Кбт/с
Language : English
Service kind : Complete Main
Default : No
Forced : No

Text #1
ID : 4
Format : UTF-8
Codec ID : S_TEXT/UTF8
Codec ID/Info : UTF-8 Plain Text
Duration : 2 h 3 min
Bit rate : 1 b/s
Count of elements : 26
Stream size : 1.03 KiB (0%)
Title : Forced
Language : Ukrainian
Default : Yes
Forced : No

Text #2
ID : 5
Format : UTF-8
Codec ID : S_TEXT/UTF8
Codec ID/Info : UTF-8 Plain Text
Duration : 2 h 8 min
Bit rate : 85 b/s
Count of elements : 1626
Stream size : 80.3 KiB (0%)
Title : Full
Language : Ukrainian
Default : No
Forced : No

Text #3
ID : 6
Format : UTF-8
Codec ID : S_TEXT/UTF8
Codec ID/Info : UTF-8 Plain Text
Duration : 2 h 5 min
Bit rate : 63 b/s
Count of elements : 1895
Stream size : 58.7 KiB (0%)
Title : Full
Language : English
Default : No
Forced : No

Text #4
ID : 7
Format : UTF-8
Codec ID : S_TEXT/UTF8
Codec ID/Info : UTF-8 Plain Text
Duration : 2 h 5 min
Bit rate : 71 b/s
Count of elements : 2115
Stream size : 65.8 KiB (0%)
Title : SDH
Language : English
Default : No
Forced : No
Скріншоти






Джерело:
Особиста оцінка: 0 - не дивився
Увага! Перед завантаженням переконайтесь, що ваш пристрій відтворення (та/або ПЗ) підтримує H.265 (HEVC)


 Трекер:    Зареєстрований   

Завантажити / скачати фільм українською



відео для новачків



 Зареєстрований:   2019-02-09 21:27
 Розмір:   6.51 GB 
 Оцінка фільму:   8.8/10 (Голосів: 9)
   
Інші релізи
   Вдови / Widows (2018) UHD Remux 4K 2160p HDR H.265 Ukr/Eng | Ukr/Eng antik_2008  1 / 0   48.14 GB   2019-02-10 11:32 
   Вдови / Widows (2018) Ukr/Eng | Sub Ukr/Eng antik_2008  12 / 0   2.59 GB   2019-02-09 20:11 
   Вдови / Widows (2018) Remux 1080p Ukr/Eng | Sub Ukr/Eng staf777  2 / 0   28.93 GB   2019-02-09 18:54 
   Вдови / Widows (2018) 1080p Ukr/Eng | Sub Ukr/Eng/Spa/Fre igor911  5 / 0   16.87 GB   2019-02-09 17:32 
   Вдови / Widows (2018) uafilm.tv  9 / 0   2.18 GB   2019-02-09 17:27 
   Вдови / Widows (2018) 720p Ukr/Eng | Sub Ukr/Eng 11FrYkT  9 / 0   5.07 GB   2019-02-09 11:46 
   Вдови / Widows (2018) AVC Ukr/Eng | Sub Ukr/Eng 11FrYkT  7 / 0   2.47 GB   2019-02-09 11:27 
Anonymous 







2019-02-09 21:28  
Реліз оновлено. Додав звук з ліцензії 
Ваш часовий пояс: GMT + 2 Години

Нова тема   Відповісти