Суспірія / Suspiria (2018) 1080p Ukr/Eng | Sub Eng

Нові коментарі

Нова тема   Відповісти
Автор Повідомлення
antik_2008 
Релізер і модератор відео


З нами з: 20.10.08
Востаннє: 26.04.19
Повідомлень: 1952

2019-02-06 00:25  
Суспірія / Suspiria (2018) 1080p Ukr/Eng | Sub Eng

Суспірія / Suspiria (2018) 1080p Ukr/Eng | Sub Eng


Жанр: детектив, трилер, жахи, фентезі
Країна: США, Італія





Кінокомпанія: Frenesy Film Company,Videa,First Sun
Режисер: Лука Ґуаданьїно
Актори: Дакота Джонсон, Тільда Суінтон, Міа Ґот, Хлоя Ґрейс Морец, Малгожата Бела, Ангела Вінклер, Рене Саутендейк, Сільві Тестю, Інгрід Кавен, Єлена Фокіна

Сюжет:
С’юзі перебралася з США до німецького міста Берлін заради однієї мети: стати ученицею прославленої балетної школи, до якої чимало хто хоче потрапити. Цю танцювальну трупу знають по всім світі, але далеко не всім відомо, що ховається за дверима цього начебто пристойного закладу. А там відбуваються дуже дивні та навіть темні справи. Осьо й С’юзі про це дізналася — і дівчині не дуже хочеться загинути чи мати якийсь стосунок до чорної магії. Але вона усвідомлює, що буде наступною жертвою цієї академії. Врятувати С’юзі може лише розгадка таємниці цього місця — місця відьомського шабашу..


Тривалість: 02:32:10
Якість:
Відео:
кодек:
розмір кадру: 1920x1040
бітрейт: 15,5 Мб/с

Аудіо # 1:
мова: українська
переклад: професійний дубльований
кодек: 2.0
бітрейт: 192 кб/с

Аудіо # 2:
мова: англійська
переклад: оригінал
кодек: 5.1
бітрейт: 640 кб/с

Субтитри:
мова: англійська
тип: програмні (м'які)
формат: *.srt
Info
Код:
General
Complete name                            : Suspiria (2018) 1080p [UKR_ENG] [ViDeO_Hurtom].
Format                                   :
Format version                           : Version 4
File size                                : 17.3 GiB
Duration                                 : 2 h 32 min
Overall bit rate                         : 16.3 Mb/s
Movie name                               : Suspiria (2018) 1080p [UKR_ENG] [ViDeO_Hurtom]
Encoded date                             : UTC 2019-02-07 14:48:52
Writing application                      : v30.1.0 ('Forever And More') 64-bit
Writing library                          : libebml v1.3.6 + v1.4.9

Video
ID                                       : 1
Format                                   : AVC
Format/Info                              : Advanced Video Codec
Format profile                           : [email protected]
Format settings                          : CABAC / 4 Ref Frames
Format settings, CABAC                   : Yes
Format settings, RefFrames               : 4 frames
Codec ID                                 : V_MPEG4/ISO/AVC
Duration                                 : 2 h 32 min
Bit rate                                 : 15.5 Mb/s
Width                                    : 1 920 pixels
Height                                   : 1 040 pixels
Display aspect ratio                     : 1.85:1
Frame rate mode                          : Constant
Frame rate                               : 24.000 FPS
Color space                              : YUV
Chroma subsampling                       : 4:2:0
Bit depth                                : 8 bits
Scan type                                : Progressive
Bits/(Pixel*Frame)                       : 0.323
Stream size                              : 16.4 GiB (95%)
Writing library                          : core 155 r2867+74 66b5600 t_mod_Custom_2 [[email protected] X86_64]
Encoding settings                        : cabac=1 / ref=4 / deblock=1:-3:-3 / analyse=0x3:0x113 / me=umh / subme=11 / psy=1 / fade_compensate=0.00 / psy_rd=1.00:0.00 / mixed_ref=1 / me_range=32 / chroma_me=1 / trellis=2 / 8x8dct=1 / cqm=0 / deadzone=21,11 / fast_pskip=0 / chroma_qp_offset=-2 / threads=12 / lookahead_threads=2 / sliced_threads=0 / nr=0 / decimate=0 / interlaced=0 / bluray_compat=0 / constrained_intra=0 / fgo=0 / bframes=8 / b_pyramid=2 / b_adapt=2 / b_bias=0 / direct=3 / weightb=1 / open_gop=0 / weightp=2 / keyint=250 / keyint_min=24 / scenecut=40 / intra_refresh=0 / rc_lookahead=60 / rc=crf / mbtree=0 / crf=17.0000 / qcomp=0.60 / qpmin=0:0:0 / qpmax=69:69:69 / qpstep=4 / vbv_maxrate=62500 / vbv_bufsize=78125 / crf_max=0.0 / nal_hrd=none / filler=0 / ip_ratio=1.30 / pb_ratio=1.20 / aq=3:0.80 / aq-sensitivity=10.00 / aq-factor=1.00:1.00:1.00 / aq2=0 / aq3=0 / zones=53530,54150,crf=14/74116,74455,crf=14/76541,76574,crf=14/87055,87319,crf=14/88000,88070,crf=14/95526,95600,crf=14/115538,115625,crf=14/158500,158675,crf=14/162373,162778,crf=14/163600,163723,crf=14/187400,195312,crf=13/212118,219142,crf=22
Language                                 : English
Default                                  : Yes
Forced                                   : No
Color range                              : Limited
Color primaries                          : BT.709
Transfer characteristics                 : BT.709
Matrix coefficients                      : BT.709

Audio #1
ID                                       : 2
Format                                   : AC-3
Format/Info                              : Audio Coding 3
Commercial name                          : Dolby Digital
Codec ID                                 : A_AC3
Duration                                 : 2 h 32 min
Bit rate mode                            : Constant
Bit rate                                 : 192 kb/s
Channel(s)                               : 2 channels
Channel layout                           : L R
Sampling rate                            : 48.0 kHz
Frame rate                               : 31.250 FPS (1536 SPF)
Bit depth                                : 16 bits
Compression mode                         : Lossy
Stream size                              : 209 MiB (1%)
Title                                    : , 2 ch, 192 Кбт/с
Language                                 : Ukrainian
Service kind                             : Complete Main
Default                                  : Yes
Forced                                   : No

Audio #2
ID                                       : 3
Format                                   : AC-3
Format/Info                              : Audio Coding 3
Commercial name                          : Dolby Digital
Codec ID                                 : A_AC3
Duration                                 : 2 h 32 min
Bit rate mode                            : Constant
Bit rate                                 : 640 kb/s
Channel(s)                               : 6 channels
Channel layout                           : L R C LFE Ls Rs
Sampling rate                            : 48.0 kHz
Frame rate                               : 31.250 FPS (1536 SPF)
Bit depth                                : 16 bits
Compression mode                         : Lossy
Stream size                              : 697 MiB (4%)
Title                                    : , 6 ch, 640 Кбт/с
Language                                 : English
Service kind                             : Complete Main
Default                                  : No
Forced                                   : No

Text
ID                                       : 4
Format                                   : UTF-8
Codec ID                                 : S_TEXT/UTF8
Codec ID/Info                            : UTF-8 Plain Text
Duration                                 : 2 h 31 min
Bit rate                                 : 33 b/s
Count of elements                        : 1607
Stream size                              : 37.5 KiB (0%)
Title                                    : SDH
Language                                 : English
Default                                  : No
Forced                                   : No
Скріншоти










Підтримати купівлю інших фільмів можна тут.


Подяка пану AngryBirdsUA за доріжку, та пану 11FrYkT за допомогу в створенні релізу

Джерело: &
Особиста оцінка: 0 - не дивився


 Трекер:    Зареєстрований   

Завантажити / скачати фільм українською



відео для новачків



 Зареєстрований:   2019-02-07 23:27
 Розмір:   17.33 GB 
 Оцінка фільму:   8/10 (Голосів: 14)
   
Інші релізи
   Суспірія / Suspiria (2018) 720p Ukr/Eng | Sub Eng 11FrYkT  13 / 0   5.21 GB   2019-02-17 14:20 
   Суспірія / Suspiria (2018) AVC Ukr/Eng | Sub Eng 11FrYkT  12 / 0   2.75 GB   2019-02-17 12:04 
   Суспірія / Suspiria (2018) Remux 1080p Ukr/Eng | Sub Eng antik_2008  4 / 0   27.59 GB   2019-02-09 18:50 
   Суспірія / Suspiria (2018) Ukr/Eng antik_2008  13 / 0   2.39 GB   2019-02-07 20:24 
   Суспірія / Suspiria (2018) antik_2008  26 / 0   1.53 GB   2019-02-07 19:58 
ppk21 
Свій


З нами з: 28.02.09
Востаннє: 24.04.19
Повідомлень: 145

2019-02-06 03:10  
Коли?
rubyrud1 
Новенький


З нами з: 24.04.18
Востаннє: 24.04.19
Повідомлень: 16

2019-02-06 19:18  
чекаю)
Час_настал 
VIP


З нами з: 01.07.10
Востаннє: 26.04.19
Повідомлень: 322

2019-02-06 21:11  
Я так розумію, хтось вирішив зробити рімейк трилогії «Три матері» Даріо Ардженти. Треба буде глянути.
bot 
робот


З нами з: 30.09.07
Востаннє: 26.05.05
Повідомлень: 21250

2019-02-07 23:27  
Тему перенесено з Анонси релізів до форуму Фільми в HD


antik_2008

hetzendorf 
Попереджень: 2
Попереджень: 2 


З нами з: 23.07.15
Востаннє: 26.04.19
Повідомлень: 2068

2019-02-10 23:17  
Ну таке, дивитися було доволі цікаво, але стрічка далеко не супер. Мій детальніший відгук там: https://toloka.to/t98820#1069250
vovang6 
Поважний учасник


З нами з: 27.08.12
Востаннє: 26.04.19
Повідомлень: 194

2019-02-12 08:29  
Переглянув десь третину і видалив з задоволенням. Мені не зайшло. Не цікаво і нудно, очікував зовсім іншого. 4/10.
ppk21 
Свій


З нами з: 28.02.09
Востаннє: 24.04.19
Повідомлень: 145

2019-02-15 02:34  
Типове гейське кіно для естетів-п...расів (режисер - відкритий гей, що живе у шлюбі з чоловіком). З відкритим оспівуванням фемінності та приниженням маскулінності. Відраза автора до чоловіків традиційної орієнтації навіть у тому, що головну чоловічу роль виконала жінка стрьомної зовнішності.
Ваш часовий пояс: GMT + 2 Години

Нова тема   Відповісти