Полярний / Polar (2019) AVC Ukr/Eng | Sub Eng/Multi

Нові коментарі

Нова тема   Відповісти
Сторінка:  1, 2  наступна
Автор Повідомлення
Anonymous 







2019-02-05 21:19  
Полярний / Polar (2019) AVC Ukr/Eng | Sub Eng/Multi

Полярний / Polar (2019) AVC Ukr/Eng | Sub Eng/Multi


Жанр: екшн, кримінальний, бойовик
Країна: Німеччина, США



Кінокомпанія: Constantin Film, Dark Horse Entertainment
Режисер: Йонас Акерлунд
Актори: Мадс Міккельсен, Ванесса Енн Хадженс, Кетрін Винник, Рубі О. Фі, Джонні Ноксвілл, Метт Лукас, Сіма Фішер, Роберт Мейллет, Фей Рен, Інга Кадранел

Сюжет:
Цілком симпатичний кримінальний бойовик про кілера на пенсії, який страждає на хворобу Альцгеймера, але через смерть близького друга готовий знову взятися за зброю.

Головний герой – в минулому один з найнебезпечніших найманих вбивць в світі Дункан Візлі, відомий в кругах кілерів як «Чорний Кайзер». Роки беруть своє і Дункан відчуває, що прийшов час закінчувати з небезпечною роботою. Але в цей час його роботодавець, у якого зібралася чимала сума гонорарів Дункана та інших кілерів, вирішує позбутися від усіх своїх найманців, щоб привласнити їхні гроші собі. І все б нічого, але він вбиває друга Чорного Кайзера, а такого Дункан не пробачає…


Тривалість: 01:58:53
Якість: AVC
Відео:
кодек:
розмір кадру: 720 х 360
бітрейт: 1100 кб/с

Аудіо # 1:
мова: українська
переклад: багатоголосий закадровий
кодек: 5.1
бітрейт: 384 кб/с

Аудіо # 2:
мова: англійська, російська
переклад: оригінал
кодек: E- 5.1
бітрейт: 448 кб/с

Джерело озвучення: DniproFilm

Субтитри:
мова: англійська (форс.), англійська, англійська (SDH), арабська, китайська (спрощ.), китайська (традиц.), данська, нідерландська, фінська, французька, німецька, грецька, гебрейська, гінді, індонезійська, італійська, японська, корейська, норвезька, польська, португальська, португальська (браз.), румунська, російська, іспанська, іспанська (каталонська?), шведська, тайська, турецька, в'єтнамська
тип: програмні (м'які)
формат: *.srt
Info
General
Unique ID : 229966815521037091894114950355136040465 (0xAD01FF64341892E6B5C407900BC84E11)
Complete name : Polar (2019) AVC [UKR.ENG, sub ENG.MULTI] [Hurtom].
Format :
Format version : Version 4
File size : 1.59 GiB
Duration : 1 h 58 min
Overall bit rate : 1 920 kb/s
Movie name : Полярний (2019)
Encoded date : UTC 2019-02-05 15:45:13
Writing application : v30.1.0 ('Forever And More') 64-bit
Writing library : libebml v1.3.6 + v1.4.9
Cover : Yes
Attachments : cover.jpg

Video
ID : 1
Format : AVC
Format/Info : Advanced Video Codec
Format profile : [email protected]
Format settings : CABAC / 5 Ref Frames
Format settings, CABAC : Yes
Format settings, ReFrames : 5 frames
Codec ID : V_MPEG4/ISO/AVC
Duration : 1 h 58 min
Bit rate : 1 100 kb/s
Width : 720 pixels
Height : 360 pixels
Display aspect ratio : 2.000
Frame rate mode : Constant
Frame rate : 23.976 (24000/1001) FPS
Color space : YUV
Chroma subsampling : 4:2:0
Bit depth : 8 bits
Scan type : Progressive
Bits/(Pixel*Frame) : 0.177
Stream size : 923 MiB (57%)
Writing library : core 148 r2795M aaa9aa8
Encoding settings : cabac=1 / ref=5 / deblock=1:-1:-1 / analyse=0x3:0x113 / me=umh / subme=9 / psy=1 / psy_rd=1.00:0.15 / mixed_ref=1 / me_range=16 / chroma_me=1 / trellis=2 / 8x8dct=1 / cqm=0 / deadzone=21,11 / fast_pskip=1 / chroma_qp_offset=-3 / threads=24 / lookahead_threads=2 / sliced_threads=0 / nr=0 / decimate=1 / interlaced=0 / bluray_compat=0 / constrained_intra=0 / bframes=3 / b_pyramid=2 / b_adapt=2 / b_bias=0 / direct=3 / weightb=1 / open_gop=0 / weightp=2 / keyint=250 / keyint_min=23 / scenecut=40 / intra_refresh=0 / rc_lookahead=50 / rc=abr / mbtree=1 / bitrate=1100 / ratetol=1.0 / qcomp=0.60 / qpmin=0 / qpmax=69 / qpstep=4 / ip_ratio=1.40 / aq=1:1.00
Language : English
Default : Yes
Forced : No

Audio #1
ID : 2
Format : AC-3
Format/Info : Audio Coding 3
Commercial name : Dolby Digital
Codec ID : A_AC3
Duration : 1 h 58 min
Bit rate mode : Constant
Bit rate : 384 kb/s
Channel(s) : 6 channels
Channel layout : L R C LFE Ls Rs
Sampling rate : 48.0 kHz
Frame rate : 31.250 FPS (1536 SPF)
Bit depth : 16 bits
Compression mode : Lossy
Stream size : 327 MiB (20%)
Language : Ukrainian
Service kind : Complete Main
Default : Yes
Forced : Yes

Audio #2
ID : 3
Format : E-AC-3 JOC
Format/Info : Enhanced AC-3 with Joint Object Coding
Commercial name : Dolby Digital Plus with Dolby Atmos
Codec ID : A_EAC3
Duration : 1 h 58 min
Bit rate mode : Constant
Bit rate : 448 kb/s
Channel(s) : 6 channels
Channel layout : L R C LFE Ls Rs
Sampling rate : 48.0 kHz
Frame rate : 31.250 FPS (1536 SPF)
Compression mode : Lossy
Stream size : 379 MiB (23%)
Language : English
Service kind : Complete Main
Default : No
Forced : No
Complexity index : 16
Number of dynamic objects : 15
Bed channel count : 1 channel
Bed channel configuration : LFE

Text #1
ID : 4
Format : UTF-8
Codec ID : S_TEXT/UTF8
Codec ID/Info : UTF-8 Plain Text
Duration : 12 min 24 s
Bit rate : 13 b/s
Count of elements : 57
Stream size : 1.26 KiB (0%)
Title : English (Forced)
Language : English
Default : Yes
Forced : Yes

Text #2
ID : 5
Format : UTF-8
Codec ID : S_TEXT/UTF8
Codec ID/Info : UTF-8 Plain Text
Duration : 1 h 46 min
Bit rate : 39 b/s
Count of elements : 1154
Stream size : 30.7 KiB (0%)
Title : English
Language : English
Default : No
Forced : No

Text #3
ID : 6
Format : UTF-8
Codec ID : S_TEXT/UTF8
Codec ID/Info : UTF-8 Plain Text
Duration : 1 h 54 min
Bit rate : 52 b/s
Count of elements : 1683
Stream size : 43.9 KiB (0%)
Title : English (SDH)
Language : English
Default : No
Forced : No

Text #4
ID : 7
Format : UTF-8
Codec ID : S_TEXT/UTF8
Codec ID/Info : UTF-8 Plain Text
Duration : 1 h 57 min
Bit rate : 61 b/s
Count of elements : 1147
Stream size : 52.9 KiB (0%)
Title : Arabic
Language : Arabic
Default : No
Forced : No

Text #5
ID : 8
Format : UTF-8
Codec ID : S_TEXT/UTF8
Codec ID/Info : UTF-8 Plain Text
Duration : 1 h 57 min
Bit rate : 37 b/s
Count of elements : 1150
Stream size : 32.6 KiB (0%)
Title : Chinese (Simplified)
Language : Chinese
Default : No
Forced : No

Text #6
ID : 9
Format : UTF-8
Codec ID : S_TEXT/UTF8
Codec ID/Info : UTF-8 Plain Text
Duration : 1 h 57 min
Bit rate : 38 b/s
Count of elements : 1166
Stream size : 33.2 KiB (0%)
Title : Chinese (Traditional)
Language : Chinese
Default : No
Forced : No

Text #7
ID : 10
Format : UTF-8
Codec ID : S_TEXT/UTF8
Codec ID/Info : UTF-8 Plain Text
Duration : 1 h 57 min
Bit rate : 35 b/s
Count of elements : 1146
Stream size : 30.4 KiB (0%)
Title : Danish
Language : Danish
Default : No
Forced : No

Text #8
ID : 11
Format : UTF-8
Codec ID : S_TEXT/UTF8
Codec ID/Info : UTF-8 Plain Text
Duration : 1 h 57 min
Bit rate : 39 b/s
Count of elements : 1183
Stream size : 33.8 KiB (0%)
Title : Dutch
Language : Dutch
Default : No
Forced : No

Text #9
ID : 12
Format : UTF-8
Codec ID : S_TEXT/UTF8
Codec ID/Info : UTF-8 Plain Text
Duration : 1 h 47 min
Bit rate : 39 b/s
Count of elements : 962
Stream size : 31.3 KiB (0%)
Title : Finnish
Language : Finnish
Default : No
Forced : No

Text #10
ID : 13
Format : UTF-8
Codec ID : S_TEXT/UTF8
Codec ID/Info : UTF-8 Plain Text
Duration : 1 h 57 min
Bit rate : 35 b/s
Count of elements : 1131
Stream size : 30.6 KiB (0%)
Title : French
Language : French
Default : No
Forced : No

Text #11
ID : 14
Format : UTF-8
Codec ID : S_TEXT/UTF8
Codec ID/Info : UTF-8 Plain Text
Duration : 1 h 57 min
Bit rate : 39 b/s
Count of elements : 1131
Stream size : 33.9 KiB (0%)
Title : German
Language : German
Default : No
Forced : No

Text #12
ID : 15
Format : UTF-8
Codec ID : S_TEXT/UTF8
Codec ID/Info : UTF-8 Plain Text
Duration : 1 h 57 min
Bit rate : 57 b/s
Count of elements : 1111
Stream size : 49.2 KiB (0%)
Title : Greek
Language : Greek
Default : No
Forced : No

Text #13
ID : 16
Format : UTF-8
Codec ID : S_TEXT/UTF8
Codec ID/Info : UTF-8 Plain Text
Duration : 1 h 57 min
Bit rate : 53 b/s
Count of elements : 1141
Stream size : 46.1 KiB (0%)
Title : Hebrew
Language : Hebrew
Default : No
Forced : No

Text #14
ID : 17
Format : UTF-8
Codec ID : S_TEXT/UTF8
Codec ID/Info : UTF-8 Plain Text
Duration : 1 h 57 min
Bit rate : 105 b/s
Count of elements : 1232
Stream size : 90.6 KiB (0%)
Title : Hindi
Language : Hindi
Default : No
Forced : No

Text #15
ID : 18
Format : UTF-8
Codec ID : S_TEXT/UTF8
Codec ID/Info : UTF-8 Plain Text
Duration : 1 h 57 min
Bit rate : 34 b/s
Count of elements : 1135
Stream size : 29.7 KiB (0%)
Title : Indonesian
Language : Indonesian
Default : No
Forced : No

Text #16
ID : 19
Format : UTF-8
Codec ID : S_TEXT/UTF8
Codec ID/Info : UTF-8 Plain Text
Duration : 1 h 57 min
Bit rate : 37 b/s
Count of elements : 1136
Stream size : 32.2 KiB (0%)
Title : Italian
Language : Italian
Default : No
Forced : No

Text #17
ID : 20
Format : UTF-8
Codec ID : S_TEXT/UTF8
Codec ID/Info : UTF-8 Plain Text
Duration : 1 h 57 min
Bit rate : 38 b/s
Count of elements : 1274
Stream size : 32.9 KiB (0%)
Title : Japanese
Language : Japanese
Default : No
Forced : No

Text #18
ID : 21
Format : UTF-8
Codec ID : S_TEXT/UTF8
Codec ID/Info : UTF-8 Plain Text
Duration : 1 h 57 min
Bit rate : 41 b/s
Count of elements : 1150
Stream size : 35.8 KiB (0%)
Title : Korean
Language : Korean
Default : No
Forced : No

Text #19
ID : 22
Format : UTF-8
Codec ID : S_TEXT/UTF8
Codec ID/Info : UTF-8 Plain Text
Duration : 1 h 57 min
Bit rate : 31 b/s
Count of elements : 1055
Stream size : 27.0 KiB (0%)
Title : Norwegian
Language : Norwegian
Default : No
Forced : No

Text #20
ID : 23
Format : UTF-8
Codec ID : S_TEXT/UTF8
Codec ID/Info : UTF-8 Plain Text
Duration : 1 h 57 min
Bit rate : 32 b/s
Count of elements : 1128
Stream size : 28.4 KiB (0%)
Title : Polish
Language : Polish
Default : No
Forced : No

Text #21
ID : 24
Format : UTF-8
Codec ID : S_TEXT/UTF8
Codec ID/Info : UTF-8 Plain Text
Duration : 1 h 57 min
Bit rate : 35 b/s
Count of elements : 1125
Stream size : 30.9 KiB (0%)
Title : Portuguese
Language : Portuguese
Default : No
Forced : No

Text #22
ID : 25
Format : UTF-8
Codec ID : S_TEXT/UTF8
Codec ID/Info : UTF-8 Plain Text
Duration : 1 h 47 min
Bit rate : 38 b/s
Count of elements : 1105
Stream size : 30.6 KiB (0%)
Title : Portuguese (Brazilian)
Language : Portuguese
Default : No
Forced : No

Text #23
ID : 26
Format : UTF-8
Codec ID : S_TEXT/UTF8
Codec ID/Info : UTF-8 Plain Text
Duration : 1 h 57 min
Bit rate : 37 b/s
Count of elements : 1133
Stream size : 32.4 KiB (0%)
Title : Romanian
Language : Romanian
Default : No
Forced : No

Text #24
ID : 27
Format : UTF-8
Codec ID : S_TEXT/UTF8
Codec ID/Info : UTF-8 Plain Text
Duration : 1 h 47 min
Bit rate : 60 b/s
Count of elements : 1107
Stream size : 47.7 KiB (0%)
Title : Russian
Language : Russian
Default : No
Forced : No

Text #25
ID : 28
Format : UTF-8
Codec ID : S_TEXT/UTF8
Codec ID/Info : UTF-8 Plain Text
Duration : 1 h 57 min
Bit rate : 31 b/s
Count of elements : 1122
Stream size : 27.0 KiB (0%)
Title : Spanish
Language : Spanish
Default : No
Forced : No

Text #26
ID : 29
Format : UTF-8
Codec ID : S_TEXT/UTF8
Codec ID/Info : UTF-8 Plain Text
Duration : 1 h 57 min
Bit rate : 30 b/s
Count of elements : 1107
Stream size : 26.6 KiB (0%)
Title : Spanish
Language : Spanish
Default : No
Forced : No

Text #27
ID : 30
Format : UTF-8
Codec ID : S_TEXT/UTF8
Codec ID/Info : UTF-8 Plain Text
Duration : 1 h 57 min
Bit rate : 32 b/s
Count of elements : 1141
Stream size : 28.3 KiB (0%)
Title : Swedish
Language : Swedish
Default : No
Forced : No

Text #28
ID : 31
Format : UTF-8
Codec ID : S_TEXT/UTF8
Codec ID/Info : UTF-8 Plain Text
Duration : 1 h 57 min
Bit rate : 90 b/s
Count of elements : 1150
Stream size : 78.1 KiB (0%)
Title : Thai
Language : Thai
Default : No
Forced : No

Text #29
ID : 32
Format : UTF-8
Codec ID : S_TEXT/UTF8
Codec ID/Info : UTF-8 Plain Text
Duration : 1 h 57 min
Bit rate : 37 b/s
Count of elements : 1135
Stream size : 32.4 KiB (0%)
Title : Turkish
Language : Turkish
Default : No
Forced : No

Text #30
ID : 33
Format : UTF-8
Codec ID : S_TEXT/UTF8
Codec ID/Info : UTF-8 Plain Text
Duration : 1 h 57 min
Bit rate : 46 b/s
Count of elements : 1137
Stream size : 40.1 KiB (0%)
Title : Vietnamese
Language : Vietnamese
Default : No
Forced : No
Скріншоти







Джерело:


Авторський реліз (завантажувати можна без реєстрації)
 Трекер:    Зареєстрований   

Завантажити / скачати фільм українською



відео для новачків



 Зареєстрований:   2019-02-05 21:19
 Розмір:   1.59 GB 
 Оцінка фільму:   8.3/10 (Голосів: 91)
   
Інші релізи
   Полярний / Polar (2019) 1080p Ukr/Eng | Sub Eng staf777  14 / 0   13.27 GB   2019-02-10 17:19 
   Полярний / Polar (2019) 720p Ukr/Eng | Sub Eng Anоnymous  13 / 0   5.04 GB   2019-02-10 16:00 
pravdorub 
Свій


З нами з: 25.12.17
Востаннє: 10.07.19
Повідомлень: 83

2019-02-05 21:34  
Цитата:
гебрейська, кацапська

1) непослідовно 2) порушення п.2.6 від модератора...

До початку лементу секти ДФ...3...2...1...

fl_fl 
Відео Гуртом - фільмокрай
Відео Гуртом - фільмокрай


З нами з: 26.05.09
Востаннє: 16.07.19
Повідомлень: 3167

2019-02-05 22:02  
Навіщо викладати фільми ДФ, якщо ви були проти їхніх релізів?
Electroz 
Відео Гуртом - підтримка та поширення
Відео Гуртом - підтримка та поширення


З нами з: 18.09.14
Востаннє: 16.07.19
Повідомлень: 3453

2019-02-05 22:19  
del
Sando7 
Відео Гуртом - запис з ТБ
Відео Гуртом - запис з ТБ


З нами з: 04.05.09
Востаннє: 16.07.19
Повідомлень: 1407

2019-02-05 22:22  
Я гадав ви зрозуміли що не можна викладати так швидко
Anоnymous 
VIP


З нами з: 25.08.18
Востаннє: 04.06.19
Повідомлень: 808

2019-02-05 22:39  
Anonymous

Мабуть сумно в музичному розділі?

Dark Invader 
Модератор відео


З нами з: 06.01.11
Востаннє: 16.07.19
Повідомлень: 2678

2019-02-06 00:18  
ssTAss
Чому не зачекати хоч трохи часу? Тільки ж вчора обговорення було на рахунок цього...
Але видно вам все одно, що через такі оперативні релізи без реклами студія може закритись...

Volodya_S 
Поважний учасник


З нами з: 04.02.11
Востаннє: 16.07.19
Повідомлень: 185

2019-02-06 01:28  
що таке ДФ?
чому не можна викладати швидко?
як фільм? опис зацікавив, а скріни нагадують треш в його недобрій подобі

Apple 
Свій


З нами з: 13.07.08
Востаннє: 15.07.19
Повідомлень: 72

2019-02-06 01:36  
Volodya_S написано:
DniproFilm


Я от не розумію невдоволення половини Толоки рекламою.

Ви качаєте фільми нахаляву! В укр озвучці! І вам ще щось не так? Прикриють колись лавку, то будете плакати за укр озвучку з рекламою.
Ну ппц вже наглота )))

Volodya_S 
Поважний учасник


З нами з: 04.02.11
Востаннє: 16.07.19
Повідомлень: 185

2019-02-06 01:40  
Apple
то все через рекламу? а озвучують добре чи на любителя?

ced 
Свій


З нами з: 11.02.17
Востаннє: 15.07.19
Повідомлень: 95

2019-02-06 02:15  
Volodya_S написано:
а озвучують добре чи на любителя?

Добре і без мовних збочень.

igor911 
Модератор відео


З нами з: 18.01.08
Востаннє: 16.07.19
Повідомлень: 12900

2019-02-06 12:43  
Цитата:
Кетрін Уінник

ну навіщо так по мокшанськи обзивати Катрусю Винницьку? Виправив.

Додано через 17 хвилин 59 секунд:

* теж порадив би витримувати паузу в декілька днів між релізами DniproFilm в них і тут, щоб не давати зайвого приводу злим язикам звинувачувати адміністрацію Гуртом у т.з. "навмисному знищенні українського контенту".

Махиндра 
Частий відвідувач


З нами з: 28.11.16
Востаннє: 15.07.19
Повідомлень: 37

2019-02-06 19:13  
досить непогано. такий собі Джон Вік на мінімалках
Apple 
Свій


З нами з: 13.07.08
Востаннє: 15.07.19
Повідомлень: 72

2019-02-06 21:32  
Volodya_S
та добре озвучують! Взагалі нема до чого причепитись. Якщо ви не задрот звісно )
Бо тим завжди щось не так.

bogdangevyuk 
Новенький


З нами з: 16.03.17
Востаннє: 29.05.19
Повідомлень: 6

2019-02-07 17:21  
як фыльм дивитись можна
haronwovka 
Частий відвідувач


З нами з: 14.02.14
Востаннє: 15.07.19
Повідомлень: 31

2019-02-07 19:14  
bogdangevyuk
Можна навіть без дозволу.

Aladdinif 
Новенький


З нами з: 09.06.15
Востаннє: 11.03.19
Повідомлень: 1

2019-02-07 22:52  
В мене чомусь ривками відтворюється.
tpolit 
VIP


З нами з: 10.01.15
Востаннє: 15.07.19
Повідомлень: 451

2019-02-08 01:13  
Нормальне кіно, хоча в ньому трохи дратує намагання режисера копіювати стиль фільмів Гая Річі. Слідкуйте, щоб дітей не було поруч, бо є дуже відверті сцени у різних позах.
makcim 
Новенький


З нами з: 13.02.09
Востаннє: 06.07.19
Повідомлень: 18

2019-02-08 14:39  
tpolit написано:
Нормальне кіно, хоча в ньому трохи дратує намагання режисера копіювати стиль фільмів Гая Річі. Слідкуйте, щоб дітей не було поруч, бо є дуже відверті сцени у різних позах.

хммм Rolleyes (4)

nazipro 
Новенький


З нами з: 30.10.17
Востаннє: 18.06.19
Повідомлень: 2

2019-02-08 21:38  
Вийшов якийсь "Джон Уік 4" але не погано, фільм сподобався. Мадс Міккельсен брутал!
pricer 
Новенький


З нами з: 12.12.13
Востаннє: 17.06.19
Повідомлень: 8

2019-02-09 00:42  
Не спадобалося, дешево, не якiсно, погана гра акторiв, сюжет теж лажа.
don pedro 
Попереджень: 1
Попереджень: 1 


З нами з: 29.06.11
Востаннє: 16.07.19
Повідомлень: 13996

2019-02-09 03:02  
Я, грішним ділом, було подумав, що таке вже багато років не знімають. Як видно, помилився. У інших своїх фільмах "Netflix" намагався робити якісно. Тут і сліду цього немає. Мадсу Міккельсену великий мінус за цю хФільму.
Mark_Vell 
Новенький


З нами з: 10.12.15
Востаннє: 15.07.19
Повідомлень: 19

2019-02-09 03:42  
Від Netflix більшого і не чекав. І, до речі, опис фільму не відповідає дійсності!!! Не скажу, що фільм зовсім поганий - є хороші моменти, та порівнювати його з "Джоном Віком" точно неварто.
kostolovych 
Новенький


З нами з: 08.07.09
Востаннє: 14.07.19
Повідомлень: 5

2019-02-09 13:18  
Дуже посереднє кіно, знято дешево, антигерой якийсь лузер. Шкода витраченого часу.
sanzal 
Частий відвідувач


З нами з: 27.11.16
Востаннє: 10.07.19
Повідомлень: 29

2019-02-10 12:02  
Як вже тут казали - знято у стилі "Джон Уік". Як на мене, то цей фільм занадто кривавий.
alex2 
Свій


З нами з: 01.02.12
Востаннє: 16.07.19
Повідомлень: 134

2019-02-10 12:51  
та ладно вамHappy брутал дойчланд філм)) Мадс красень.
Apple 
Свій


З нами з: 13.07.08
Востаннє: 15.07.19
Повідомлень: 72

2019-02-14 00:48  
а от собачку шкода ))) Хоча я більше сміявся в той момент )))
knibe 
Новенький


З нами з: 18.12.13
Востаннє: 15.07.19
Повідомлень: 20

2019-02-14 10:21  
Розглядайте фільм не як нову частину Уіка, а як легку пародію на Уіка - і вас попустить Wink (1)
myzeu 
Новенький


З нами з: 30.10.17
Востаннє: 12.07.19
Повідомлень: 12

2019-02-15 12:41  
Казка казкова. За перші 5хв можна зробити висновок про весь фільм. В них снайпер не вбиває з першого пострілу, йому потрібно ще троє біля обєкту ліквідації. Кілєрша з пістолєм на височенних каблуках з обтягнутою дупою. Куля як зайшла так і вийшла - не розірвавши при виході нічого. Як бойовик - ніякий. А от курва класна! Сцени з нею дивитися можна, рекомендую! )
Ergo Proxy 
Свій


З нами з: 23.05.12
Востаннє: 15.07.19
Повідомлень: 99

2019-02-19 22:12  
Серіали Нетфлікс переважно подобаються й я не проти трешу, але цього фільму мені вистачило на кілька хвилин(
якось дуже дешево все виглядає...
може якось колись потім все ж додивлюсь

Ваш часовий пояс: GMT + 2 Години

Нова тема   Відповісти Сторінка:  1, 2  наступна