Джиперс Кріперс 2 / Jeepers Creepers II (2003) Remux 1080p Ukr/Eng | Sub Eng

Нові коментарі

Нова тема   Відповісти
Автор Повідомлення
staf777 
Відео Гуртом - підтримка та поширення
Відео Гуртом - підтримка та поширення


З нами з: 16.11.16
Востаннє: 24.04.19
Повідомлень: 2284

2019-02-05 20:09  
Джиперс Кріперс 2 / Jeepers Creepers II (2003) Remux 1080p Ukr/Eng | Sub Eng

Джиперс Кріперс 2 / Jeepers Creepers II (2003) Remux 1080p Ukr/Eng | Sub Eng
Альтернативні постери:

Джиперс Кріперс 2 / Jeepers Creepers II (2003) Remux 1080p Ukr/Eng | Sub Eng

Джиперс Кріперс 2 / Jeepers Creepers II (2003) Remux 1080p Ukr/Eng | Sub Eng


Жанр: жахи, трилер
Країна: США



Кінокомпанія: American Zoetrope Pictures
Режисер: Віктор Сальва
Актори: Рей Вайз, Джонатан Брек, Гарікаї Мутамбірва, Ерік Неннінгер, Ніккі Ейкокс, Тревіс Шиффнер, Лєна Кардвелл, Біллі Аарон Браун, Марі Дельфіно, Даян Делано

Сюжет:
Раз на 23 роки зловісний крилатий монстр пробуджується від довгого сну, щоб 23 дні насичуватися людською плоттю і страхом своїх жертв. Під кінець останнього дня його кошмарного бенкету, і сьогодні древнє невідоме зло чекає багатий улов - спортивна команда і чарівні вболівальниці, що повертаються з тріумфальної гри. Вони одні в зламаному автобусі на пустельному шосе, де не працюють мобільні телефони і нізвідки чекати допомоги. На заході сонця ненажерливий виплодок пекла почне свою криваву вакханалію. Чи зможе його видобуток дожити до ранку, або ця невразлива тварюка вб'є обійнятих жахом тінейджерів одного за одним?


Тривалість: 01:44:04
Якість: Remux 1080p
Відео:
кодек:
розмір кадру: 1920x1080
бітрейт: 23.0 Mб/с

Аудіо # 1:
мова: українська
переклад: багатоголосий закадровий
кодек: 5.1
бітрейт: 448 кб/с

Аудіо # 2:
мова: англійська
переклад: оригінал
кодек: -HD MA 5.1
бітрейт: 4067 кб/с

Джерело озвучення:


Субтитри:
мова: англійська
тип: програмні (м'які)
формат: *.srt
Info
General
Unique ID : 296492610217515764023437899731625483539 (0xDF0E664E3352C2FB79937FB4D9429D13)
Complete name : S:\» HD українською » Фільми в HD\Жахи\Jeepers Creepers II (2002) Remux 1080p [UKR][ENG][Hurtom].
Format :
Format version : Version 4
File size : 20.0 GiB
Duration : 1 h 44 min
Overall bit rate mode : Variable
Overall bit rate : 27.5 Mb/s
Movie name : Jeepers Creepers II (2002) Remux 1080p [UKR][ENG][Hurtom]
Encoded date : UTC 2019-02-05 16:49:51
Writing application : v30.1.0 ('Forever And More') 64-bit
Writing library : libebml v1.3.6 + v1.4.9
Cover : Yes
Attachments : cover.jpg

Video
ID : 1
Format : AVC
Format/Info : Advanced Video Codec
Format profile : [email protected]
Format settings : CABAC / 4 Ref Frames
Format settings, CABAC : Yes
Format settings, ReFrames : 4 frames
Codec ID : V_MPEG4/ISO/AVC
Duration : 1 h 44 min
Bit rate mode : Variable
Bit rate : 23.0 Mb/s
Maximum bit rate : 40.0 Mb/s
Width : 1 920 pixels
Height : 1 080 pixels
Display aspect ratio : 16:9
Frame rate mode : Constant
Frame rate : 23.976 (24000/1001) FPS
Color space : YUV
Chroma subsampling : 4:2:0
Bit depth : 8 bits
Scan type : Progressive
Bits/(Pixel*Frame) : 0.462
Stream size : 16.7 GiB (84%)
Language : English
Default : Yes
Forced : No
Color range : Limited
Color primaries : BT.709
Transfer characteristics : BT.709
Matrix coefficients : BT.709

Audio #1
ID : 2
Format : AC-3
Format/Info : Audio Coding 3
Commercial name : Dolby Digital
Codec ID : A_AC3
Duration : 1 h 43 min
Bit rate mode : Constant
Bit rate : 448 kb/s
Channel(s) : 6 channels
Channel layout : L R C LFE Ls Rs
Sampling rate : 48.0 kHz
Frame rate : 31.250 FPS (1536 SPF)
Bit depth : 16 bits
Compression mode : Lossy
Stream size : 333 MiB (2%)
Title : MVO (ТЕТ)
Language : Ukrainian
Service kind : Complete Main
Default : Yes
Forced : Yes

Audio #2
ID : 3
Format : XLL
Format/Info : Digital Theater Systems
Commercial name : -HD Master Audio
Codec ID : A_DTS
Duration : 1 h 44 min
Bit rate mode : Variable
Bit rate : 4 067 kb/s
Channel(s) : 6 channels
Channel layout : C L R Ls Rs LFE
Sampling rate : 48.0 kHz
Frame rate : 93.750 FPS (512 SPF)
Bit depth : 24 bits
Compression mode : Lossless
Stream size : 2.96 GiB (15%)
Title : Original
Language : English
Default : No
Forced : No

Text #1
ID : 4
Format : UTF-8
Codec ID : S_TEXT/UTF8
Codec ID/Info : UTF-8 Plain Text
Duration : 1 h 35 min
Bit rate : 35 b/s
Count of elements : 794
Stream size : 24.8 KiB (0%)
Title : Full
Language : English
Default : No
Forced : No

Text #2
ID : 5
Format : UTF-8
Codec ID : S_TEXT/UTF8
Codec ID/Info : UTF-8 Plain Text
Duration : 1 h 36 min
Bit rate : 39 b/s
Count of elements : 952
Stream size : 27.6 KiB (0%)
Title : SDH
Language : English
Default : No
Forced : No

Menu
00:00:00.000 : en:Scary Scarecrow
00:04:57.047 : en:The Dog Knows
00:06:16.167 : en:Day 22's Victim
00:08:02.816 : en:"Down and Disabled"
00:12:59.570 : en:Symbolic Weapon
00:15:24.382 : en:Break Before the Storm
00:18:03.582 : en:Memories of Hitchcock
00:20:42.450 : en:Futile Warning
00:23:17.021 : en:Sharp Teeth
00:26:26.877 : en:A Flare for Killing
00:28:59.988 : en:So Long, Coach
00:30:46.845 : en:"What Was It?"
00:32:29.197 : en:The Tension Rises
00:35:43.350 : en:Picking Its Prey
00:39:45.842 : en:A Dead Boy Speaks
00:42:34.719 : en:The Smell of Fear
00:45:32.396 : en:Making Contact
00:48:45.339 : en:Skewering a Beast
00:50:50.631 : en:No Exit
00:55:25.739 : en:A Wing and No Prayer
00:57:42.834 : en:He Lost His Head!
01:00:07.395 : en:Time to Split
01:05:35.431 : en:Run for Your Life!
01:09:30.958 : en:"You Can't Stop It"
01:11:22.945 : en:"Don't Make Me Go!"
01:13:01.544 : en:A Show of Power
01:16:24.872 : en:Going Creep Shooting
01:20:44.923 : en:"A Big Ugly Bug"
01:24:45.247 : en:Life-or-Death Battle
01:29:41.418 : en:"It Isn't Dead"
01:33:48.748 : en:Bat Out of Hell
01:38:02.752 : en:End Credits


Джерело: &
Українізація постерів - Ham_R, hellforces
Особиста оцінка: 8 - мені сподобалося



Золотий реліз (завантажене не впливає на рейтинг)
 Трекер:    Зареєстрований   

Завантажити / скачати фільм українською



відео для новачків



 Зареєстрований:   2019-02-06 10:33
 Розмір:   20 GB 
 Оцінка фільму:   8/10 (Голосів: 6)
   
bot 
робот


З нами з: 30.09.07
Востаннє: 26.05.05
Повідомлень: 21239

2019-02-06 10:32  
Тему перенесено з Анонси релізів до форуму Фільми в HD


staf777

Ваш часовий пояс: GMT + 2 Години

Нова тема   Відповісти