Притримай темряву / Hold the Dark (2018) 720p Eng | Sub Ukr/Eng/Ita/Esp/Fre

Нові коментарі

Нова тема   Відповісти
Автор Повідомлення
Anonymous 







2019-02-05 19:36  
Притримай темряву / Hold the Dark (2018) 720p Eng | Sub Ukr/Eng/Ita/Esp/Fre

Притримай темряву / Hold the Dark (2018) 720p Eng | Sub Ukr/Eng/Ita/Esp/Fre

Жанр: пригодницький, драма, жахи, детектив, трилер, бойовик
Країна: США



Кінокомпанія: Addictive Pictures, Film Science, VisionChaos Productions, Netflix
Режисер: Джеремі Солньє / Jeremy Saulnier
Актори: Джеффрі Райт / Jeffrey Wright, Александр Скарсгард / Alexander Skarsgård, Райлі Кіо / Riley Keough, Джеймс Бедж Дейл / James Badge Dale, Мейкон Блер / Macon Blair, Джонатан Вайтселл / Jonathan Whitesell, Джеймс Блур / James Bloor та інші

Сюжет:
У снігах Аляски сталася трагедія. Знайдено тіла трьох дітей, імовірно розтерзаних вовками, також зник шестирічний хлопчик. Батьки зниклого наймають слідопита-дослідника і фахівця з вовків Расселла Кора, щоб той знайшов їх сина.


Віковий телевізійний рейтинг у США: TV-MA - не рекомендується дітям до 17 років
Вікова категорія: 16+

Тривалість: 02:05:50
Якість: 720p
Відео:
кодек:
розмір кадру: 1280 х 536
бітрейт: 1631 кб/с

Аудіо:
мова: англійська
переклад: оригінал
кодек: E- 5.1
бітрейт: 640 кб/с

Субтитри # 1:
мова: українська
тип: програмні (м'які)
формат: *.srt
переклад: любительський, спільнота SubAutumn
редагування: igor911

Субтитри # 2-5:
мова: англійська, італійська, іспанська, французька
тип: програмні (м'які)
формат: *.srt
Info
Код:

Complete name               : Hold the Dark (2018) [Eng sub.Ukr,Eng] 720p [Hurtom].
Format                      :
Format version              : Version 4
File size                   : 2.00 GiB
Duration                    : 2 h 5 min
Overall bit rate            : 2 274 kb/s
Movie name                  : Притримай темряву / Hold the Dark (2018) [Eng sub.Ukr,Eng] 720p [Hurtom]
Encoded date                : UTC 2019-02-05 19:40:25
Writing application         : v30.1.0 ('Forever And More') 64-bit
Writing library             : libebml v1.3.6 + v1.4.9
Cover                       : Yes
Attachments                 : cover.jpg

Video
ID                          : 1
Format                      : AVC
Format/Info                 : Advanced Video Codec
Format profile              : [email protected]
Format settings             : CABAC / 5 Ref Frames
Format settings, CABAC      : Yes
Format settings, ReFrames   : 5 frames
Codec ID                    : V_MPEG4/ISO/AVC
Duration                    : 2 h 5 min
Bit rate                    : 1 631 kb/s
Width                       : 1 280 pixels
Height                      : 536 pixels
Display aspect ratio        : 2.40:1
Frame rate mode             : Constant
Frame rate                  : 23.976 (24000/1001) FPS
Color space                 : YUV
Chroma subsampling          : 4:2:0
Bit depth                   : 8 bits
Scan type                   : Progressive
Bits/(Pixel*Frame)          : 0.099
Stream size                 : 1.43 GiB (72%)
Title                       : Притримай темряву / Hold the Dark (2018) 720p [NTROPiC]
Writing library             : core 157 r2935 545de2f
Encoding settings           : cabac=1 / ref=5 / deblock=1:-3:-3 / analyse=0x3:0x133 / me=umh / subme=9 / psy=1 / psy_rd=1.00:0.15 / mixed_ref=1 / me_range=16 / chroma_me=1 / trellis=2 / 8x8dct=1 / cqm=0 / deadzone=21,11 / fast_pskip=0 / chroma_qp_offset=-5 / threads=17 / lookahead_threads=1 / sliced_threads=0 / nr=0 / decimate=1 / interlaced=0 / bluray_compat=0 / constrained_intra=0 / bframes=3 / b_pyramid=2 / b_adapt=2 / b_bias=0 / direct=3 / weightb=1 / open_gop=0 / weightp=2 / keyint=240 / keyint_min=23 / scenecut=40 / intra_refresh=0 / rc=crf / mbtree=0 / crf=19.8 / qcomp=0.60 / qpmin=0 / qpmax=69 / qpstep=4 / ip_ratio=1.40 / pb_ratio=1.30 / aq=1:1.00
Language                    : English
Default                     : Yes
Forced                      : No

Audio
ID                          : 2
Format                      : E-AC-3
Format/Info                 : Enhanced AC-3
Commercial name             : Dolby Digital Plus
Codec ID                    : A_EAC3
Duration                    : 2 h 5 min
Bit rate mode               : Constant
Bit rate                    : 640 kb/s
Channel(s)                  : 6 channels
Channel layout              : L R C LFE Ls Rs
Sampling rate               : 48.0 kHz
Frame rate                  : 31.250 FPS (1536 SPF)
Compression mode            : Lossy
Stream size                 : 576 MiB (28%)
Title                       : Original, E- 5.1 640 Kbps
Language                    : English
Service kind                : Complete Main
Default                     : Yes
Forced                      : Yes

Text #1
ID                          : 3
Format                      : UTF-8
Codec ID                    : S_TEXT/UTF8
Codec ID/Info               : UTF-8 Plain Text
Duration                    : 1 h 58 min
Bit rate                    : 34 b/s
Count of elements           : 792
Stream size                 : 30.0 KiB (0%)
Title                       : Ukr full [t.me/SubAutumn], edit by igor911 [Hurtom.com]
Language                    : Ukrainian
Default                     : Yes
Forced                      : Yes

Text #2
ID                          : 4
Format                      : UTF-8
Codec ID                    : S_TEXT/UTF8
Codec ID/Info               : UTF-8 Plain Text
Duration                    : 1 h 56 min
Bit rate                    : 22 b/s
Count of elements           : 811
Stream size                 : 18.9 KiB (0%)
Title                       : English
Language                    : English
Default                     : No
Forced                      : No

Text #3
ID                          : 5
Format                      : UTF-8
Codec ID                    : S_TEXT/UTF8
Codec ID/Info               : UTF-8 Plain Text
Duration                    : 2 h 4 min
Bit rate                    : 18 b/s
Count of elements           : 796
Stream size                 : 16.9 KiB (0%)
Title                       : Italian
Language                    : Italian
Default                     : No
Forced                      : No

Text #4
ID                          : 6
Format                      : UTF-8
Codec ID                    : S_TEXT/UTF8
Codec ID/Info               : UTF-8 Plain Text
Duration                    : 2 h 0 min
Bit rate                    : 22 b/s
Count of elements           : 812
Stream size                 : 19.4 KiB (0%)
Title                       : Spanish
Language                    : Spanish
Default                     : No
Forced                      : No

Text #5
ID                          : 7
Format                      : UTF-8
Codec ID                    : S_TEXT/UTF8
Codec ID/Info               : UTF-8 Plain Text
Duration                    : 1 h 58 min
Bit rate                    : 24 b/s
Count of elements           : 814
Stream size                 : 21.0 KiB (0%)
Title                       : French
Language                    : French
Default                     : No
Forced                      : No
Скріншоти
Джерело: &


Золотий реліз (завантажене не впливає на рейтинг)
 Трекер:    Зареєстрований   

Завантажити / скачати фільм українською



відео для новачків



 Зареєстрований:   2019-02-05 23:15
 Розмір:   2 GB 
 Оцінка фільму:   8/10 (Голосів: 11)
 ЗАЛИШАЙТЕСЬ ЯКОМОГА ДОВШЕ НА РОЗДАЧІ! ЗАВАНТАЖИВ САМ - ДАЙ ЗАВАНТАЖИТИ ІНШИМ!
   
bot 
робот


З нами з: 30.09.07
Востаннє: 26.05.05
Повідомлень: 22059

2019-02-05 23:15  
Тему перенесено з Анонси релізів до форуму Фільми


igor911

Obey 
Свій


З нами з: 12.06.11
Востаннє: 17.09.19
Повідомлень: 93

2019-02-05 23:30  
Шкода що ніхто не озвучив (:
zanevsky 
Свій


З нами з: 14.03.09
Востаннє: 17.09.19
Повідомлень: 97

2019-02-10 22:43  
дякую дуже. фільм класний.
tpolit 
VIP


З нами з: 10.01.15
Востаннє: 17.09.19
Повідомлень: 471

2019-02-11 00:26  
Цікавий фільм, але я взагалі нічого не зрозумів.
подорожній 
Свій


З нами з: 20.06.15
Востаннє: 06.08.19
Повідомлень: 129

2019-02-11 20:06  
Я читав, що цей фільм - епігон на "Вітряну ріку" (https://toloka.to/t98455). Є моменти, що дійсно змавповано, але цей - значно моторошніший!
stigmat1996 
Новенький


З нами з: 03.11.13
Востаннє: 11.09.19
Повідомлень: 1

2019-02-17 20:52  
Такого дибільного фільму я ще не дивився. Не витрачайте свій. Ні сюжету, ні сценарію.
vetallhavrylak 
Новенький


З нами з: 21.01.13
Востаннє: 14.04.19
Повідомлень: 2

2019-03-07 21:11  
Фільм в стилі книг Стівена Кінга. Ніби й сюжет норм і гра акторів, але якось все дуже затягнуто. На середині фільма заснув)) 6 з 10
Ваш часовий пояс: GMT + 2 Години

Нова тема   Відповісти