Хорея Козацька - Пісні Української революції (2019) [] | Folk

Нові коментарі

Нова тема   Відповісти
Автор Повідомлення
KEHT_UA 
Новенький


З нами з: 12.11.15
Востаннє: 05.07.19
Повідомлень: 8

2019-02-05 19:05  
Хорея Козацька - Пісні Української революції (2019) [] | Folk

Хорея Козацька - Пісні Української революції (2019) [] | Folk


Стиль: Folk
Країна, місто: Україна, Київ
Сайти: Офіційний сайт
Видавець: Український інститут національної пам'яті
Виконавці:
Тарас Компаніченко (кобза, бандура, уд, спів).
Данило Перцов (пандора, шалмей, корнетто, лізард, спів).
Северин Данилейко (басоля, спів). Поза «Хореєю» є постійним учасником гурту «Гуляйгород».
Михайло Качалов (фідель, спів). Окрім «Хореї Козацької», є постійним учасником музичних колективів «Бурдон» та «Буття».
Сергій Охрімчук (скрипка, спів).
Ярослав Крисько (бандура, барабан, спів).
Вадим Шевчук (українська ліра, німецька ліра, блок-флейта, бандура, дуда (ґайда), цинк).
Пісні:
Пісні:
    Диск 1

    01 Народний гімн 'Ще не вмерла Україна'
    02 Народний гімн 'Не пора, не пора!'
    03 Гімн 'Вкраїно-мати, кат сконав!'
    04 Гей, вкраїнці, єще наша живе річ святая!
    05 Народний марш 'Гей не дивуйте, добрії люди'
    06 Заповіт
    07 Марш українських соколів 'До волі з неволі'
    08 Запорозький марш 'Гей нум, братці, всі до зброї!'
    09 Засяяло сонце золоте
    10 Накрила нічка
    11 Як упав же він з коня
    12 Гімн 'Вічний революціонер'
    13 Живи, Україно!
    14 Марш 'Стяг'

    Диск 2

    01 Од синього Дону до сивих Карпат
    02 Чи то буря, чи то грім!
    03 За рідний край
    04 Пісня про Петлюру
    05 Покинь, мій синочку, ридати
    06 Гімн Українських січових стрільців 'Ой у лузі червона калина'
    07 Марш 'Наша славна Україна'
    08 Для всіх ти мертва і смішна
    09 Сидів орел на степовій могилі
    10 Запорозький марш 'Гей, за наш рідний край!'
    11 Гайдамацька пісня
    12 Марш 'За Україну з вогнем завзяття'
    13 Український національний гімн 'Ще не вмерла Україна'

Тривалість: 00:53:30 + 00:50:07
Мова: українська
Аудіо-кодек:
Бітрейт: 778 кб/с
Джерело: Власний ріп
Додаткова інформація:
Диск 1

Exact Audio Copy V1.3 from 2. September 2016

Отчёт EAC об извлечении, выполненном 31. января 2019, 18:06

Хорея Козацька / Пісні Української революції

Дисковод: hp CDDVDW SU-208BB Adapter: 1 ID: 0

Режим чтения : Достоверность
Использование точного потока : Да
Отключение кэша аудио : Да
Использование указателей C2 : Нет

Коррекция смещения при чтении : 6
Способность читать области Lead-in и Lead-out : Нет
Заполнение пропущенных сэмплов тишиной : Да
Удаление блоков с тишиной в начале и конце : Нет
При вычислениях CRC использовались нулевые сэмплы : Да
Интерфейс : Встроенный Win32-интерфейс для Win NT/2000

Выходной формат : Внутренние WAV-операции
Формат сэмплов : 44.100 Гц; 16 бит; стерео

TOC извлечённого CD

Трек | Старт | Длительность | Начальный сектор | Конечный сектор
---------------------------------------------------------------------
1 | 0:00.00 | 3:42.37 | 0 | 16686
2 | 3:42.37 | 3:52.51 | 16687 | 34137
3 | 7:35.13 | 4:03.63 | 34138 | 52425
4 | 11:39.01 | 3:32.54 | 52426 | 68379
5 | 15:11.55 | 4:39.30 | 68380 | 89334
6 | 19:51.10 | 4:03.27 | 89335 | 107586
7 | 23:54.37 | 3:51.12 | 107587 | 124923
8 | 27:45.49 | 2:11.02 | 124924 | 134750
9 | 29:56.51 | 5:03.30 | 134751 | 157505
10 | 35:00.06 | 4:45.57 | 157506 | 178937
11 | 39:45.63 | 5:17.52 | 178938 | 202764
12 | 45:03.40 | 3:50.16 | 202765 | 220030
13 | 48:53.56 | 1:53.09 | 220031 | 228514
14 | 50:46.65 | 2:43.56 | 228515 | 240795

Характеристики диапазона извлечения и сообщения об ошибках

Выбранный диапазон

Имя файла C:\Users\Music\Хорея Козацька - Пісні Української революції\CD1\Хорея Козацька - Пісні Української революції.wav

Пиковый уровень 96.7 %
Скорость извлечения 3.6 X
Качество диапазона 100.0 %
CRC копии 3A229217
Копирование... OK

Ошибок не произошло

AccurateRip: сводка

Трек 1 отсутствует в базе данных
Трек 2 отсутствует в базе данных
Трек 3 отсутствует в базе данных
Трек 4 отсутствует в базе данных
Трек 5 отсутствует в базе данных
Трек 6 отсутствует в базе данных
Трек 7 отсутствует в базе данных
Трек 8 отсутствует в базе данных
Трек 9 отсутствует в базе данных
Трек 10 отсутствует в базе данных
Трек 11 отсутствует в базе данных
Трек 12 отсутствует в базе данных
Трек 13 отсутствует в базе данных
Трек 14 отсутствует в базе данных

Ни одного трека нет в базе AccurateRip

Конец отчёта

---- CUETools DB Plugin V2.1.6

[CTDB TOCID: bp040fcUAo19REuNW8IkCDbummQ-] disk not present in database
Submit result: bp040fcUAo19REuNW8IkCDbummQ- has been uploaded
Диск 2

Exact Audio Copy V1.3 from 2. September 2016

Отчёт EAC об извлечении, выполненном 1. февраля 2019, 18:40

Хорея Козацька / Пісні Української революції

Дисковод: hp CDDVDW SU-208BB Adapter: 1 ID: 0

Режим чтения : Достоверность
Использование точного потока : Да
Отключение кэша аудио : Да
Использование указателей C2 : Нет

Коррекция смещения при чтении : 6
Способность читать области Lead-in и Lead-out : Нет
Заполнение пропущенных сэмплов тишиной : Да
Удаление блоков с тишиной в начале и конце : Нет
При вычислениях CRC использовались нулевые сэмплы : Да
Интерфейс : Встроенный Win32-интерфейс для Win NT/2000

Выходной формат : Внутренние WAV-операции
Формат сэмплов : 44.100 Гц; 16 бит; стерео

TOC извлечённого CD

Трек | Старт | Длительность | Начальный сектор | Конечный сектор
---------------------------------------------------------------------
1 | 0:00.00 | 2:57.50 | 0 | 13324
2 | 2:57.50 | 3:59.14 | 13325 | 31263
3 | 6:56.64 | 4:03.66 | 31264 | 49554
4 | 11:00.55 | 6:00.30 | 49555 | 76584
5 | 17:01.10 | 2:11.43 | 76585 | 86452
6 | 19:12.53 | 3:33.25 | 86453 | 102452
7 | 22:46.03 | 3:50.26 | 102453 | 119728
8 | 26:36.29 | 1:55.46 | 119729 | 128399
9 | 28:32.00 | 3:20.08 | 128400 | 143407
10 | 31:52.08 | 2:16.64 | 143408 | 153671
11 | 34:08.72 | 7:12.51 | 153672 | 186122
12 | 41:21.48 | 4:32.39 | 186123 | 206561
13 | 45:54.12 | 4:13.53 | 206562 | 225589

Характеристики диапазона извлечения и сообщения об ошибках

Выбранный диапазон

Имя файла C:\Users\Music\Хорея Козацька - Пісні Української революції\CD2\Хорея Козацька - Пісні Української революції.wav

Пиковый уровень 96.7 %
Скорость извлечения 3.6 X
Качество диапазона 100.0 %
CRC копии F2D7BA6C
Копирование... OK

Ошибок не произошло

AccurateRip: сводка

Трек 1 отсутствует в базе данных
Трек 2 отсутствует в базе данных
Трек 3 отсутствует в базе данных
Трек 4 отсутствует в базе данных
Трек 5 отсутствует в базе данных
Трек 6 отсутствует в базе данных
Трек 7 отсутствует в базе данных
Трек 8 отсутствует в базе данных
Трек 9 отсутствует в базе данных
Трек 10 отсутствует в базе данных
Трек 11 отсутствует в базе данных
Трек 12 отсутствует в базе данных
Трек 13 отсутствует в базе данных

Ни одного трека нет в базе AccurateRip

Конец отчёта

---- CUETools DB Plugin V2.1.6

[CTDB TOCID: QQyGAHqzzYyEqrffs4Mq01PZ5JA-] disk not present in database
Submit result: QQyGAHqzzYyEqrffs4Mq01PZ5JA- has been uploaded


Якщо Ви справді бажаєте підтримати українське - після прослуховування, якщо музика вам сподобалась, придбайте ліцензійний диск. Підтримаймо вітчизняних виконавців!


Срібний реліз (на рейтинг впливає 50% завантаженого)
 Трекер:    Зареєстрований   

Завантажити / скачати українську музику



відео для новачків



 Зареєстрований:   2019-02-06 13:00
 Розмір:   574 MB 
 Оцінка музики:   10/10 (Голосів: 15)
   
ssTAss 
Модератор музики


З нами з: 05.07.08
Востаннє: 17.07.19
Повідомлень: 15157

2019-02-06 00:16  
KEHT_UA 
Новенький


З нами з: 12.11.15
Востаннє: 05.07.19
Повідомлень: 8

2019-02-06 13:01  
Переробив, перекачуйте.
kolpavel 
VIP


З нами з: 04.05.14
Востаннє: 17.07.19
Повідомлень: 1251

2019-02-09 10:19  
Це у кого такий гiмн 'Ще не вмерла Україна'? Може якийсь дурiнь і співає таке, але це точно не гімн України!
mr.killer 
Поважний учасник


З нами з: 11.08.10
Востаннє: 09.07.19
Повідомлень: 231

2019-02-10 14:41  
Хтось має обкладинки до цього альбому?
jekamuzyka 
Новенький


З нами з: 27.09.16
Востаннє: 07.07.19
Повідомлень: 1

2019-02-11 17:10  
kolpavel
У Гімну є безліч відмінних текстів, я на пам'ять лиш назву 10 різних версій і це лиш демонструє те, що Гімн дійсно був народним і жив серед людей. Версія, що викладена тут здебільшого відома як Гімн України з Кубані. Тиць

Padruga 
Новенький


З нами з: 29.12.10
Востаннє: 07.05.19
Повідомлень: 5

2019-03-04 11:26  
Видавець не "Саме так", а Український інститут національної пам'яті. Виправте, будь ласка https://uinp.gov.ua/pres-centr/novyny/instytut-vyklav-u-vilnyy-dostup-pisni-ukrayinskoyi-revolyuciyi
Ваш часовий пояс: GMT + 2 Години

Нова тема   Відповісти