Хорея Козацька - De Libertate (2018) [] | Folk

Нові коментарі

Нова тема   Відповісти
Автор Повідомлення
KEHT_UA 
Новенький


З нами з: 12.11.15
Востаннє: 14.02.19
Повідомлень: 8

2019-02-05 16:55  
Хорея Козацька - De Libertate (2018) [] | Folk

Хорея Козацька - De Libertate (2018) [] | Folk


Стиль: Folk
Країна, місто: Україна, Київ
Сайти: Офіційний сайт
Видавець: САМЕ ТАК!
Виконавці:
Тарас Компаніченко (кобза, бандура, уд, спів).
Данило Перцов (пандора, шалмей, корнетто, лізард, спів).
Северин Данилейко (басоля, спів). Поза «Хореєю» є постійним учасником гурту «Гуляйгород».
Михайло Качалов (фідель, спів). Окрім «Хореї Козацької», є постійним учасником музичних колективів «Бурдон» та «Буття».
Сергій Охрімчук (скрипка, спів).
Ярослав Крисько (бандура, барабан, спів).
Вадим Шевчук (українська ліра, німецька ліра, блок-флейта, бандура, дуда (ґайда), цинк).
Пісні:
    01 Ангели знижайтеся
    02 Войська Запорозького воїн знаменитий
    03 De Libertate
    04 Гей, була в мене коняка
    05 Ой чого ти почорніло зеленеє поле
    06 Стрілецький марш ''Весна''
    07 За рідний край
    08 За читанням Ясунарі Кавабати
    09 Та шукав козак чести й слави
    10 Дума про Савур-могилу
    11 Deus et Patria
    12 Ще не вмерла Україна

Тривалість: 00:50:07
Мова: українська
Аудіо-кодек:
Бітрейт: 799 кб/с
Джерело: Власний ріп
Додаткова інформація:
log

Exact Audio Copy V1.3 from 2. September 2016

Отчёт EAC об извлечении, выполненном 21. сентября 2018, 13:02

Хорея Козацька / De Libertate

Дисковод: hp CDDVDW SU-208BB Adapter: 1 ID: 0

Режим чтения : Достоверность
Использование точного потока : Да
Отключение кэша аудио : Да
Использование указателей C2 : Нет

Коррекция смещения при чтении : 6
Способность читать области Lead-in и Lead-out : Нет
Заполнение пропущенных сэмплов тишиной : Да
Удаление блоков с тишиной в начале и конце : Нет
При вычислениях CRC использовались нулевые сэмплы : Да
Интерфейс : Встроенный Win32-интерфейс для Win NT/2000

Выходной формат : Внутренние WAV-операции
Формат сэмплов : 44.100 Гц; 16 бит; стерео

TOC извлечённого CD

Трек | Старт | Длительность | Начальный сектор | Конечный сектор
---------------------------------------------------------------------
1 | 0:00.00 | 6:38.68 | 0 | 29917
2 | 6:38.68 | 2:51.14 | 29918 | 42756
3 | 9:30.07 | 4:03.15 | 42757 | 60996
4 | 13:33.22 | 6:19.22 | 60997 | 89443
5 | 19:52.44 | 6:46.74 | 89444 | 119967
6 | 26:39.43 | 2:55.27 | 119968 | 133119
7 | 29:34.70 | 2:22.59 | 133120 | 143828
8 | 31:57.54 | 4:51.45 | 143829 | 165698
9 | 36:49.24 | 6:44.13 | 165699 | 196011
10 | 43:33.37 | 7:17.00 | 196012 | 228786
11 | 50:50.37 | 5:02.20 | 228787 | 251456
12 | 55:52.57 | 3:48.16 | 251457 | 268572

Характеристики диапазона извлечения и сообщения об ошибках

Выбранный диапазон

Имя файла C:\Users\Music\Хорея Козацька - De Libertate\Хорея Козацька - De Libertate.wav

Пиковый уровень 79.8 %
Скорость извлечения 3.7 X
Качество диапазона 99.9 %
CRC копии 32910399
Копирование... OK

Ошибок не произошло

AccurateRip: сводка

Трек 1 отсутствует в базе данных
Трек 2 отсутствует в базе данных
Трек 3 отсутствует в базе данных
Трек 4 отсутствует в базе данных
Трек 5 отсутствует в базе данных
Трек 6 отсутствует в базе данных
Трек 7 отсутствует в базе данных
Трек 8 отсутствует в базе данных
Трек 9 отсутствует в базе данных
Трек 10 отсутствует в базе данных
Трек 11 отсутствует в базе данных
Трек 12 отсутствует в базе данных

Ни одного трека нет в базе AccurateRip

Конец отчёта

---- CUETools DB Plugin V2.1.6

[CTDB TOCID: RmaJ87g0sHEbhI76c8SivzXlinQ-] found
Submit result: already submitted
Track | CTDB Status
1 | (2/2) Accurately ripped
2 | (2/2) Accurately ripped
3 | (2/2) Accurately ripped
4 | (2/2) Accurately ripped
5 | (2/2) Accurately ripped
6 | (2/2) Accurately ripped
7 | (2/2) Accurately ripped
8 | (2/2) Accurately ripped
9 | (2/2) Accurately ripped
10 | (2/2) Accurately ripped
11 | (2/2) Accurately ripped
12 | (2/2) Accurately ripped


Якщо Ви справді бажаєте підтримати українське - після прослуховування, якщо музика вам сподобалась, придбайте ліцензійний диск. Підтримаймо вітчизняних виконавців!


Срібний реліз (на рейтинг впливає 50% завантаженого)
 Трекер:    Зареєстрований   

Завантажити / скачати українську музику



відео для новачків



 Зареєстрований:   2019-02-05 16:55
 Розмір:   341 MB 
 Оцінка музики:   10/10 (Голосів: 5)
   
ssTAss 
Модератор музики


З нами з: 05.07.08
Востаннє: 17.02.19
Повідомлень: 14674

2019-02-05 17:06  
KEHT_UA
дякую за точний ріп і майже бездоганний в оформленні реліз
KEHT_UA написано:

01 Ангели знижайтеся.mp3
02 Войська Запорозького воїн знаменитий.mp3

в переліку пісень mp3 зайве... виправив
KEHT_UA написано:
Мова: українська

KEHT_UA написано:
03 De Libertate.mp3

KEHT_UA написано:
11 Deus et Patria.mp3

ще не слухав альбому, тому перепитую - в цих треках теж українська мова?

KEHT_UA 
Новенький


З нами з: 12.11.15
Востаннє: 14.02.19
Повідомлень: 8

2019-02-05 17:40  
ssTAss написано:
ще не слухав альбому, тому перепитую - в цих треках теж українська мова?

Так.
Цитата:
в переліку пісень mp3 зайве... виправив

Дякую, буде ще mp3 реліз

mr.killer 
Поважний учасник


З нами з: 11.08.10
Востаннє: 15.02.19
Повідомлень: 219

2019-02-10 13:43  
Поділіться будь ласка сканами до цього диску. Завчасно дякую!
Ваш часовий пояс: GMT + 2 Години

Нова тема   Відповісти