Гаррі Поттер і таємна кімната Розширена версія / Harry Potter and the Chamber of Secrets [Ultimate Cut] (2002) 1080p H.265 Ukr/Eng | Sub Eng

Нові коментарі

Нова тема   Відповісти
Автор Повідомлення
birdcage 
Новенький


З нами з: 15.04.18
Востаннє: 06.08.20
Повідомлень: 17

2019-02-05 16:33  
Гаррі Поттер і таємна кімната Розширена версія / Harry Potter and the Chamber of Secrets [Ultimate Cut] (2002) 1080p H.265 Ukr/Eng | Sub Eng

Гаррі Поттер і таємна кімната Розширена версія / Harry Potter and the Chamber of Secrets [Ultimate Cut] (2002)  1080p H.265 Ukr/Eng | Sub Eng


Жанр: фентезі, пригодницький, дитячий, сімейний
Країна: Велика Британія, США, Німеччина



Кінокомпанія: 1492 Pictures, Heyday Films, MIRACLE Productions GmbH & Co. KG
Режисер: Кріс Коламбус / Chris Columbus
Актори: Деніел Редкліфф / Daniel Radcliffe, Руперт Ґрінт / Rupert Grint, Емма Вотсон / Emma Watson, Річард Гарріс / Richard Harris, Том Фелтон / Tom Felton, Алан Рікмен / Alan Rickman

Сюжет:
Гаррі продовжує навчання в школі магії та чаклунства «Хогвартс», аж раптом він дізнається про страшні і таємничі події з минулого, які можуть бути тісно пов'язані з долею самого його загиблих батьків. Гаррі, Рон та Герміона дізнались легенду про заснування Хогвартса та про люту ненависть, яку «чистокровні» чаклуни відчували до «напівкровок». За легендою, в Таємній кімнаті знаходилося чудовисько, яке повинно було вбивати напівкровок. Трійка нерозлучних друзів вирішила розкрити страшну загадку Таємної кімнати і дізнатися, хто ж став спадкоємцем Слизерина.


Тривалість: 02:54:24
Якість:
Відео:
кодек: HEVC/H.265
розмір кадру: 1918 x 800
бітрейт: 8 705кб/с
бітова глибина: 8 bit
контейнер: m4v

Аудіо # 1:
мова: українська
переклад: багатоголосий закадровий (вставки з оригіналу на розширені місця)
кодек: 2.0
бітрейт: 192кб/с

Аудіо # 2:
мова: англійська
переклад: оригінал
кодек: 5.1
бітрейт: 640кб/с

Джерело озвучення:


Субтитри:
мова: англійська
тип: програмні (м'які)
формат: *.srt
Media Info
Video #1
ID : 1
Format : HEVC
Format/Info : High Efficiency Video Coding
Format profile : [email protected]
Codec ID : hvc1
Codec ID/Info : High Efficiency Video Coding
Duration : 2h 54mn
Bit rate : 8 705 Kbps
Width : 1 918 pixels
Height : 800 pixels
Display aspect ratio : 2.40:1
Frame rate mode : Variable
Frame rate : 23.976 fps
Minimum frame rate : 23.810 fps
Maximum frame rate : 24.390 fps
Color space : YUV
Chroma subsampling : 4:2:0
Bit depth : 8 bits
Bits/(Pixel*Frame) : 0.237
Stream size : 10.6 GiB (92%)
Language : English
Encoded date : UTC 2019-02-16 07:23:47
Tagged date : UTC 2019-02-16 07:27:33
Color primaries : BT.709
Transfer characteristics : BT.709
Matrix coefficients : BT.709

Video #2
ID : 3
Format : JPEG
Codec ID : jpeg
Duration : 2h 54mn
Bit rate mode : Variable
Bit rate : 5 271 bps
Width : 1 918 pixels
Height : 800 pixels
Display aspect ratio : 2.40:1
Frame rate mode : Variable
Frame rate : 0.004 fps
Minimum frame rate : 0.002 fps
Maximum frame rate : 0.006 fps
Color space : YUV
Chroma subsampling : 4:2:0
Bit depth : 8 bits
Compression mode : Lossy
Bits/(Pixel*Frame) : 0.859
Stream size : 5.81 MiB (0%)
Encoded date : UTC 2019-02-16 07:23:47
Tagged date : UTC 2019-02-16 07:27:32

Audio #1
ID : 4
Format :
Format/Info : Advanced Audio Codec
Format profile : LC
Codec ID : 40
Duration : 2h 54mn
Bit rate mode : Variable
Bit rate : 192 Kbps
Channel(s) : 2 channels
Channel positions : Front: L R
Sampling rate : 48.0 KHz
Compression mode : Lossy
Stream size : 236 MiB (2%)
Language : Ukrainian
Encoded date : UTC 2019-02-16 07:23:47
Tagged date : UTC 2019-02-16 07:27:33

Audio #2
ID : 5
Format :
Format/Info : Advanced Audio Codec
Format profile : LC
Codec ID : 40
Duration : 2h 54mn
Bit rate mode : Variable
Bit rate : 164 Kbps
Maximum bit rate : 274 Kbps
Channel(s) : 2 channels
Channel positions : Front: L R
Sampling rate : 48.0 KHz
Compression mode : Lossy
Stream size : 205 MiB (2%)
Language : English
Encoded date : UTC 2019-02-16 07:23:47
Tagged date : UTC 2019-02-16 07:27:33

Audio #3
ID : 6
Format : AC-3
Format/Info : Audio Coding 3
Mode extension : CM (complete main)
Format settings, Endianness : Big
Codec ID : ac-3
Duration : 2h 54mn
Bit rate mode : Constant
Bit rate : 384 Kbps
Channel(s) : 6 channels
Channel positions : Front: L C R, Side: L R, LFE
Sampling rate : 48.0 KHz
Bit depth : 16 bits
Compression mode : Lossy
Stream size : 479 MiB (4%)
Language : English
Encoded date : UTC 2019-02-16 07:23:47
Tagged date : UTC 2019-02-16 07:27:33

Text
ID : 7
Format : Timed Text
Muxing mode : sbtl
Codec ID : tx3g
Duration : 2h 54mn
Bit rate mode : Variable
Bit rate : 52 bps
Stream size : 66.1 KiB (0%)
Language : English
Encoded date : UTC 2019-02-16 07:23:47
Tagged date : UTC 2019-02-16 07:27:32
Скріншоти












Розширені сцени
1. Альтернативна сцена з пудингом
2. Луціус Мелфой з Драко у крамниці Борджин і Бернкс
3. Рон мало не влетів у будинок на форді
4. Конверт Філча
5. Контрольна від Локарта
6. Знайомство з Коліном Кріві
7. Розширена сцена на матчі , коли Гаррі втікає від бладжера
8. Знайомство з Джастіном
9. Роздуми Гаррі про себе
10. Розширена сцена у бібліотеці, Коли гафельпафці обговорюють Гаррі і Джастіна
11. Геґрід з мертвим півнем
12. Гаррі з Роном ховають непритомних Креба і Ґойла
13. Креб і Ґойл відходять від снодійного
14. Обговорення щоденника у лікарні
15. Гаррі розглядає щоденник у вітальні
16. Гаррі розповідає Ронові про Геґріда
17. Батьків плащ
18. Сцена де близнюки візлі жартують з Гаррі , що він спадкоємець Слизерина
19. Рон з Гаррі знаходять форд у лісі

В загальному ~ 14хв.
Джерело:
Особиста оцінка: 10 - без зайвих вагань рекомендую всім!




Реліз підготовлений для перегляду в iTunes , Apple TV, iPhone, iPad
Для перегляду данного релізу на PC рекомендується iTunes for Windows або VLC media player


Срібний реліз (на рейтинг впливає 50% завантаженого)
 Трекер:    Зареєстрований   

Завантажити / скачати фільм українською



відео для новачків



 Зареєстрований:   2019-02-16 12:57
 Розмір:   11.52 GB 
 Оцінка фільму:   9.5/10 (Голосів: 19)
   
bot 
робот


З нами з: 30.09.07
Востаннє: 26.05.05
Повідомлень: 25221

2019-02-05 16:44  
Тему перенесено з Фільми до форуму Фільми в HD

Причина перенесення: розмір кадру: 1916 x 800
igor911

igor911 
Модератор відео


З нами з: 18.01.08
Востаннє: 11.08.20
Повідомлень: 14936

2019-02-05 16:52  
birdcage, додай, будь ласка, звіт Info
kpomed 
Частий відвідувач


З нами з: 12.10.13
Востаннє: 11.08.20
Повідомлень: 32

2019-02-05 18:16  
Дякую. Всі частини в [Ultimate Cut] будуть ?
birdcage 
Новенький


З нами з: 15.04.18
Востаннє: 06.08.20
Повідомлень: 17

2019-02-05 20:04  
kpomed
В мене тільки 1, 2 частини в 1080p ,інші частини чи доп матеріали до них не зустрічав у такій якості, тому, нажаль, мабуть не буде

Robar III 
Забанено
Забанено


З нами з: 18.08.11
Востаннє: 01.05.20
Повідомлень: 4907

2019-02-06 00:40  
А чим розширена відрізняється?
birdcage 
Новенький


З нами з: 15.04.18
Востаннє: 06.08.20
Повідомлень: 17

2019-02-06 12:59  
Robar III
Додав опис

kpomed 
Частий відвідувач


З нами з: 12.10.13
Востаннє: 11.08.20
Повідомлень: 32

2019-02-06 21:42  
Супер, а перша коли ? Happy
birdcage 
Новенький


З нами з: 15.04.18
Востаннє: 06.08.20
Повідомлень: 17

2019-02-06 23:01  
kpomed
Перша вже є на толоці, тут https://toloka.to/t88535

birdcage 
Новенький


З нами з: 15.04.18
Востаннє: 06.08.20
Повідомлень: 17

2019-02-16 13:06  
Роздачу оновлено. Заміна відеоряду
Shmyg 
Новенький


З нами з: 14.08.13
Востаннє: 29.07.20
Повідомлень: 4

2019-07-28 16:34  
Сорі за дурне питання, але я не розумію, чому написано, що це 1080, а розмір кадру не 1920:1080. Хтось може просвітити?
stasyuta 
Новенький


З нами з: 05.01.09
Востаннє: 05.08.20
Повідомлень: 7

2019-07-28 18:50  
Панове, а де останні 1,5 відсотки?

Додано через 4 хвилини 13 секунд:

Shmyg
Може, тому що типове співвідношення сторін кадру в кіно 2,39х1? І ніхто не обрізав зайве.

karina48 
Новенький


З нами з: 20.05.18
Востаннє: 19.07.20
Повідомлень: 3

2020-05-04 18:19  
Можливо є десь викладена озвучка розришенної версії у перекладі нового каналу? Якщо ні, то чи з'явиться вона коли-небудь?
Ваш часовий пояс: GMT + 2 Години

Нова тема   Відповісти