Журнал Ліги Чемпіонів 2018/2019 (04.02.2019) 720р

Нові коментарі

Нова тема   Відповісти
Останній раз роздавалося lokk234 (2019-06-28)
Автор Повідомлення
lokk234 
Новенький


З нами з: 05.03.14
Востаннє: 30.05.19
Повідомлень: 24

2019-02-05 02:56  
Журнал Ліги Чемпіонів 2018/2019 (04.02.2019) 720р

Журнал Ліги Чемпіонів 2018/2019 (04.02.2019) 720р


Жанр: спорт
Телеканал: Футбол 1/2
Опис:
Анонс матчів 1/8 фіналу Ліги чемпіонів сезону 2018/19, а саме:
-підготовка Баварії з Левандовським до матчів проти Ліверпуля;
-тернистий шлях туринського вундеркінда Дибали та повернення Сульшера у Манчестер.


Тривалість: 00:23:15
Відео:
кодек:
розмір кадру: 1 280 х 720
бітрейт: 1 978 кб/с

Аудіо:
мова: українська
переклад: оригінал
коментатор: Микола Кравчук
кодек: 2.0
бітрейт: 128 кб/с
Скріншоти


Info:
General
Complete name : D:\Donowload\UCL.mp4
Format : MPEG-4
Format profile : Base Media / Version 2
Codec ID : mp42
File size : 351 MiB
Duration : 23mn 15s
Overall bit rate : 2 108 Kbps
Encoded date : UTC 2019-02-04 15:02:50
Tagged date : UTC 2019-02-04 15:02:50
gsst : 0
gstd : 1395124

Video
ID : 1
Format : AVC
Format/Info : Advanced Video Codec
Format profile : [email protected]
Format settings, CABAC : Yes
Format settings, ReFrames : 3 frames
Codec ID : avc1
Codec ID/Info : Advanced Video Coding
Duration : 23mn 15s
Bit rate mode : Variable
Bit rate : 1 978 Kbps
Width : 1 280 pixels
Height : 720 pixels
Display aspect ratio : 16:9
Frame rate mode : Constant
Frame rate : 23.976 fps
Color space : YUV
Chroma subsampling : 4:2:0
Bit depth : 8 bits
Scan type : Progressive
Bits/(Pixel*Frame) : 0.089
Stream size : 329 MiB (94%)
Title : ISO Media file produced by Google Inc. Created on: 02/04/2019.
Encoded date : UTC 2019-02-04 15:02:50
Tagged date : UTC 2019-02-04 15:02:50
Color primaries : BT.709-5, BT.1361, IEC 61966-2-4, SMPTE RP177
Transfer characteristics : BT.709-5, BT.1361
Matrix coefficients : BT.709-5, BT.1361, IEC 61966-2-4 709, SMPTE RP177

Audio
ID : 2
Format :
Format/Info : Advanced Audio Codec
Format profile : LC
Codec ID : 40
Duration : 23mn 15s
Bit rate mode : Variable
Bit rate : 128 Kbps
Channel(s) : 2 channels
Channel positions : Front: L R
Sampling rate : 44.1 KHz
Compression mode : Lossy
Stream size : 21.3 MiB (6%)
Title : ISO Media file produced by Google Inc. Created on: 02/04/2019.
Language : Russian
Encoded date : UTC 2019-02-04 15:02:50
Tagged date : UTC 2019-02-04 15:02:50

Джерело:
Особиста оцінка: 8 - мені сподобалося


 Трекер:    Зареєстрований   

Завантажити / скачати торрент



відео для новачків



 Зареєстрований:   2019-02-05 02:56
 Розмір:   351 MB 
 Оцінка:   9.7/10 (Голосів: 3)
   
staf777 
Відео Гуртом - підтримка та поширення
Відео Гуртом - підтримка та поширення


З нами з: 16.11.16
Востаннє: 25.08.19
Повідомлень: 2731

2019-02-05 11:56  
Журнал Ліги Чемпіонів 2018/2019 - шкода що без наших чемпіонів як майже завжди Шахтар обісрався Happy
11FrYkT 
Модератор відео


З нами з: 20.02.11
Востаннє: 23.08.19
Повідомлень: 6142

2019-02-06 13:49  
lokk234 , додайте коментатора, та звіт медіаінфо
lokk234 написано:

Відео:
розмір кадру: 1 280 х 720
бітрейт: 1 978 кб/с

вкажіть кодек
lokk234 написано:

https://img.hurtom.com/image/CUO3
https://img.hurtom.com/image/CUO6
https://img.hurtom.com/image/CUOO

скріншоти вставте у вигляді кодів

Ваш часовий пояс: GMT + 2 Години

Нова тема   Відповісти