Крок уперед. Колекція / Step Up. Collection (2006-2014) mini 1080p H.265 Ukr/Eng | Sub Eng

Нові коментарі

Нова тема   Відповісти
Автор Повідомлення
Anonymous 







2019-02-04 21:12  
Крок уперед. Колекція / Step Up. Collection (2006-2014) mini 1080p H.265 Ukr/Eng | Sub Eng

Крок уперед. Колекція / Step Up. Collection (2006-2014) mini 1080p H.265 Ukr/Eng | Sub Eng

1. 2. 3. 4. 5.

1. Крок вперед / Крок уперед / Step Up (2006) 1080p H.265 5xUkr/Eng | Sub Eng
Крок вперед / Крок уперед / Step Up (2006) 1080p H.265 5xUkr/Eng | Sub Eng

Крок уперед. Колекція / Step Up. Collection (2006-2014) mini 1080p H.265 Ukr/Eng | Sub Eng


Жанр: драма, мелодрама, мюзикл, романтичний
Країна: США
Кінокомпанія: Touchstone Pictures, Summit Entertainment
Режисер: Енн Флетчер
Актори: Ченнінг Татум, Дженна Деван, Маріо. Дрю Сідора, Хеві Ді, Демейн Редкліф, Дішон Вашингтон

Сюжет:
Нора - балерина, що вчиться в елітній школі, Тайлер - вуличний танцюрист, який не ладнає із законом. Для того, щоб збулися її мрії, їй потрібно знайти ідеального танцювального партнера, а йому потрібен просто шанс, щоб реалізувати свій потенціал і почати нове життя. Після випадкової зустрічі їх життя змінюється і на світ з'являється шикарний танцювальний дует.

Тривалість: 01:43:32
Якість: mini
Відео:
кодек: H.265 (HEVC)
розмір кадру: 1912 x 816
бітрейт: 4 999 кб/с
частота кадрів: 23.976 fps
біт піксель: 0.134 BPP
бітова глибина: 10 біт
Увага! Перед завантаженням переконайтесь, що ваш пристрій відтворення (та/або ПЗ) підтримує H.265 (HEVC)

Аудіо # 1:
мова: українська
переклад: багатоголосий закадровий
кодек: AC-3 2.0
бітрейт: 192 кб/с

Аудіо # 2:
мова: українська
переклад: багатоголосий закадровий
кодек: AC-3 2.0
бітрейт: 192 кб/с

Аудіо # 3:
мова: українська
переклад: багатоголосий закадровий
кодек: AC-3 2.0
бітрейт: 192 кб/с

Аудіо # 4:
мова: українська
переклад: багатоголосий закадровий
кодек: AC-3 2.0
бітрейт: 192 кб/с

Аудіо # 5:
мова: українська
переклад: багатоголосий закадровий
кодек: AC-3 2.0
бітрейт: 192 кб/с

Аудіо # 6:
мова: англійська
переклад: оригінал
кодек: 5.1
бітрейт: 384 кб/с

Субтитри # 1:
мова: англійська (Full),
тип: програмні (м'які)
формат: *.srt


Info
Код:
General
Unique ID                                : 19028938699768014954802118024775865401 (0xE50D71CEDF41EDF2A797B2EEE1C1439)
Complete name                            : F:\Video\Collection\Films\Step Up. Collection\1. Step Up (2006) 1080p H.265 [5xUKR_ENG].
Format                                   :
Format version                           : Version 4 / Version 2
File size                                : 4.59 GiB
Duration                                 : 1 h 43 min
Overall bit rate                         : 6 349 kb/s
Movie name                               : Step Up (2006)
Encoded date                             : UTC 2019-01-30 12:57:29
Writing application                      : v20.0.0 ('I Am The Sun') 64-bit
Writing library                          : libebml v1.3.5 + v1.4.8
Cover                                    : Yes
Attachments                              : cover.jpg

Video
ID                                       : 1
Format                                   : HEVC
Format/Info                              : High Efficiency Video Coding
Format profile                           : Main [email protected]@Main
Codec ID                                 : V_MPEGH/ISO/HEVC
Duration                                 : 1 h 43 min
Bit rate                                 : 4 999 kb/s
Width                                    : 1 912 pixels
Height                                   : 816 pixels
Display aspect ratio                     : 2.35:1
Frame rate mode                          : Constant
Frame rate                               : 23.976 (24000/1001) FPS
Color space                              : YUV
Chroma subsampling                       : 4:2:0
Bit depth                                : 10 bits
Bits/(Pixel*Frame)                       : 0.134
Stream size                              : 3.62 GiB (79%)
Title                                    : Step Up (2006)
Writing library                          : x265 2.6+31-3712d13c09bf:[Windows][GCC 7.2.0][64 bit] 10bit
Encoding settings                        : cpuid=1173503 / frame-threads=3 / numa-pools=8 / wpp / no-pmode / no-pme / no-psnr / no-ssim / log-level=2 / input-csp=1 / input-res=1912x816 / interlace=0 / total-frames=148955 / level-idc=0 / high-tier=1 / uhd-bd=0 / ref=4 / no-allow-non-conformance / no-repeat-headers / annexb / no-aud / no-hrd / info / hash=0 / no-temporal-layers / open-gop / min-keyint=23 / keyint=250 / gop-lookahead=0 / bframes=8 / b-adapt=2 / b-pyramid / bframe-bias=0 / rc-lookahead=80 / lookahead-slices=4 / scenecut=40 / radl=0 / no-intra-refresh / ctu=64 / min-cu-size=8 / no-rect / no-amp / max-tu-size=32 / tu-inter-depth=1 / tu-intra-depth=1 / limit-tu=0 / rdoq-level=2 / dynamic-rd=0.00 / no-ssim-rd / signhide / no-tskip / nr-intra=0 / nr-inter=0 / no-constrained-intra / no-strong-intra-smoothing / max-merge=3 / limit-refs=3 / limit-modes / me=3 / subme=5 / merange=57 / temporal-mvp / weightp / weightb / no-analyze-src-pics / deblock=-3:-3 / no-sao / no-sao-non-deblock / rd=4 / no-early-skip / no-rskip / no-fast-intra / no-tskip-fast / no-cu-lossless / no-b-intra / no-splitrd-skip / rdpenalty=0 / psy-rd=1.00 / psy-rdoq=1.00 / no-rd-refine / no-lossless / cbqpoffs=0 / crqpoffs=0 / rc=abr / bitrate=5000 / qcomp=0.60 / qpstep=4 / stats-write=0 / stats-read=2 / cplxblur=20.0 / qblur=0.5 / ipratio=1.40 / pbratio=1.30 / aq-mode=3 / aq-strength=1.00 / cutree / zone-count=0 / no-strict-cbr / qg-size=32 / no-rc-grain / qpmax=69 / qpmin=0 / no-const-vbv / sar=0 / overscan=0 / videoformat=5 / range=0 / colorprim=2 / transfer=2 / colormatrix=2 / chromaloc=0 / display-window=0 / max-cll=0,0 / min-luma=0 / max-luma=1023 / log2-max-poc-lsb=8 / vui-timing-info / vui-hrd-info / slices=1 / no-opt-qp-pps / no-opt-ref-list-length-pps / no-multi-pass-opt-rps / scenecut-bias=0.05 / no-opt-cu-delta-qp / no-aq-motion / no-hdr / no-hdr-opt / no-dhdr10-opt / analysis-reuse-level=5 / scale-factor=0 / refine-intra=0 / refine-inter=0 / refine-mv=0 / no-limit-sao / ctu-info=0 / no-lowpass-dct / refine-mv-type=0 / copy-pic=1
Default                                  : Yes
Forced                                   : No

Audio #1
ID                                       : 2
Format                                   : AC-3
Format/Info                              : Audio Coding 3
Codec ID                                 : A_AC3
Duration                                 : 1 h 43 min
Bit rate mode                            : Constant
Bit rate                                 : 192 kb/s
Channel(s)                               : 2 channels
Channel positions                        : Front: L R
Sampling rate                            : 48.0 kHz
Frame rate                               : 31.250 FPS (1536 SPF)
Bit depth                                : 16 bits
Compression mode                         : Lossy
Stream size                              : 142 MiB (3%)
Title                                    : БЗ - NLO.TV
Language                                 : Ukrainian
Service kind                             : Complete Main
Default                                  : Yes
Forced                                   : Yes

Audio #2
ID                                       : 3
Format                                   : AC-3
Format/Info                              : Audio Coding 3
Codec ID                                 : A_AC3
Duration                                 : 1 h 43 min
Bit rate mode                            : Constant
Bit rate                                 : 192 kb/s
Channel(s)                               : 2 channels
Channel positions                        : Front: L R
Sampling rate                            : 48.0 kHz
Frame rate                               : 31.250 FPS (1536 SPF)
Bit depth                                : 16 bits
Compression mode                         : Lossy
Stream size                              : 142 MiB (3%)
Title                                    : БЗ - K1
Language                                 : Ukrainian
Service kind                             : Complete Main
Default                                  : No
Forced                                   : No

Audio #3
ID                                       : 4
Format                                   : AC-3
Format/Info                              : Audio Coding 3
Codec ID                                 : A_AC3
Duration                                 : 1 h 43 min
Bit rate mode                            : Constant
Bit rate                                 : 192 kb/s
Channel(s)                               : 2 channels
Channel positions                        : Front: L R
Sampling rate                            : 48.0 kHz
Frame rate                               : 31.250 FPS (1536 SPF)
Bit depth                                : 16 bits
Compression mode                         : Lossy
Stream size                              : 142 MiB (3%)
Title                                    : БЗ - Novy Kanal
Language                                 : Ukrainian
Service kind                             : Complete Main
Default                                  : No
Forced                                   : No

Audio #4
ID                                       : 5
Format                                   : AC-3
Format/Info                              : Audio Coding 3
Codec ID                                 : A_AC3
Duration                                 : 1 h 43 min
Bit rate mode                            : Constant
Bit rate                                 : 192 kb/s
Channel(s)                               : 2 channels
Channel positions                        : Front: L R
Sampling rate                            : 48.0 kHz
Frame rate                               : 31.250 FPS (1536 SPF)
Bit depth                                : 16 bits
Compression mode                         : Lossy
Stream size                              : 142 MiB (3%)
Title                                    : БЗ - ICTV
Language                                 : Ukrainian
Service kind                             : Complete Main
Default                                  : No
Forced                                   : No

Audio #5
ID                                       : 6
Format                                   : AC-3
Format/Info                              : Audio Coding 3
Codec ID                                 : A_AC3
Duration                                 : 1 h 43 min
Bit rate mode                            : Constant
Bit rate                                 : 192 kb/s
Channel(s)                               : 2 channels
Channel positions                        : Front: L R
Sampling rate                            : 48.0 kHz
Frame rate                               : 31.250 FPS (1536 SPF)
Bit depth                                : 16 bits
Compression mode                         : Lossy
Stream size                              : 142 MiB (3%)
Title                                    : БЗ - TET
Language                                 : Ukrainian
Service kind                             : Complete Main
Default                                  : No
Forced                                   : No

Audio #6
ID                                       : 7
Format                                   :
Format/Info                              : Advanced Audio Codec
Format profile                           : LC
Codec ID                                 : A_AAC-2
Duration                                 : 1 h 43 min
Bit rate                                 : 384 kb/s
Channel(s)                               : 6 channels
Channel positions                        : Front: L C R, Side: L R, LFE
Sampling rate                            : 48.0 kHz
Frame rate                               : 46.875 FPS (1024 SPF)
Compression mode                         : Lossy
Delay relative to video                  : 20 ms
Stream size                              : 286 MiB (6%)
Title                                    : Original
Language                                 : English
Default                                  : No
Forced                                   : No

Text
ID                                       : 8
Format                                   : UTF-8
Codec ID                                 : S_TEXT/UTF8
Codec ID/Info                            : UTF-8 Plain Text
Duration                                 : 1 h 36 min
Bit rate                                 : 56 b/s
Count of elements                        : 1298
Stream size                              : 39.8 KiB (0%)
Title                                    : Full
Language                                 : English
Default                                  : Yes
Forced                                   : No

Menu
00:00:00.000                             : en:Chapter 01
00:09:00.540                             : en:Chapter 02
00:16:31.657                             : en:Chapter 03
00:23:52.180                             : en:Chapter 04
00:30:43.091                             : en:Chapter 05
00:38:46.991                             : en:Chapter 06
00:46:05.721                             : en:Chapter 07
00:55:13.435                             : en:Chapter 08
01:06:03.668                             : en:Chapter 09
01:15:07.586                             : en:Chapter 10
01:26:51.039                             : en:Chapter 11
01:39:22.164                             : en:Chapter 12
Світлини



2. Крок уперед 2: Вулиці/ Step Up 2: The Streets (2008) mini 1080p H.265 Ukr/Eng | Sub Eng
Крок уперед 2: Вулиці/ Step Up 2: The Streets (2008) mini 1080p H.265 Ukr/Eng | Sub Eng

Крок уперед. Колекція / Step Up. Collection (2006-2014) mini 1080p H.265 Ukr/Eng | Sub Eng


Жанр: мелодрама, музичний, танці
Країна: США
Кінокомпанія: Offspring Entertainment, Touchstone Pictures, Summit Entertainment
Режисер: Джон Чу
Актори: Роберт Гоффман, Браяна Евіґан, Адам Севані, Вілл Кемп, Кесі Вентура

Сюжет:
Енді любить музику і обожнює танці, якими вона займається з самого дитинства. Вона одна з учасників команди «4-1-0». Разом зі своєю командою вона виступає на різних заходах, їздить на конкурси, танцює в клубах і одночасно з цим готується виступити на конкурсі мрії всього її життя - «Вулиці».Проте, маючи численні конфлікти з правоохоронцями закону, змушена стати перед жорстким вибором: або почати своє життя з нуля або виїхати назавжди з цього міста. Вона вибирає нове життя, не заплямоване конфліктами з поліцією, і в цьому їй вирішує допомогти Тайлер Гейд. Головній героїні вдається вдало вступити в знамениту школу мистецтв у Меріленді. Але, потрапивши в нову школу, вона розуміє, що їй доведеться чимось пожертвувати, адже вона не встигає відвідувати всі тренування. Зрештою, її виганяють з власної команди. Тепер у Енді є мета: вона вирішує створити свою особисту команду, щоб довести свою приналежність до професійного світу танцюристів.

Тривалість: 01:37:31
Якість: mini
Відео:
кодек: H.265 (HEVC)
розмір кадру: 1920 x 1040
бітрейт: 4 999 кб/с
частота кадрів: 23.976 fps
біт піксель: 0.104 BPP
бітова глибина: 10 біт
Увага! Перед завантаженням переконайтесь, що ваш пристрій відтворення (та/або ПЗ) підтримує H.265 (HEVC)

Аудіо # 1:
мова: українська
переклад: багатоголосий закадровий | НеЗупиняйПродакшн
кодек: 5.1
бітрейт: 1511 кб/с

Аудіо # 2:
мова: англійська
переклад: оригінал
кодек: 5.1
бітрейт: 1511 кб/с

Субтитри # 1:
мова: англійська (Full),
тип: програмні (м'які)
формат: *.srt


Info
Код:
General
Unique ID                                : 281336690659629593689053872208041227112 (0xD3A779C77342111FDE809D1161543368)
Complete name                            : F:\Video\Collection\Films\Step Up. Collection\2. Step Up 2 The Streets (2008) 1080p H.265 [UKR_ENG].
Format                                   :
Format version                           : Version 4 / Version 2
File size                                : 5.47 GiB
Duration                                 : 1 h 37 min
Overall bit rate                         : 8 007 kb/s
Movie name                               : Step Up 2 The Streets (2008)
Encoded date                             : UTC 2019-01-30 13:13:39
Writing application                      : v20.0.0 ('I Am The Sun') 64-bit
Writing library                          : libebml v1.3.5 + v1.4.8
Cover                                    : Yes
Attachments                              : cover.jpg

Video
ID                                       : 1
Format                                   : HEVC
Format/Info                              : High Efficiency Video Coding
Format profile                           : Main [email protected]@Main
Codec ID                                 : V_MPEGH/ISO/HEVC
Duration                                 : 1 h 37 min
Bit rate                                 : 4 999 kb/s
Width                                    : 1 920 pixels
Height                                   : 1 040 pixels
Display aspect ratio                     : 1.85:1
Frame rate mode                          : Constant
Frame rate                               : 23.976 (24000/1001) FPS
Color space                              : YUV
Chroma subsampling                       : 4:2:0
Bit depth                                : 10 bits
Bits/(Pixel*Frame)                       : 0.104
Stream size                              : 3.41 GiB (62%)
Title                                    : Step Up 2 The Streets (2008)
Writing library                          : x265 2.8+12-9cde2c278464:[Windows][MSVC 1900][64 bit] 10bit
Encoding settings                        : cpuid=1111039 / frame-threads=3 / numa-pools=8 / wpp / no-pmode / no-pme / no-psnr / no-ssim / log-level=2 / input-csp=1 / input-res=1920x1040 / interlace=0 / total-frames=140304 / level-idc=0 / high-tier=1 / uhd-bd=0 / ref=4 / no-allow-non-conformance / no-repeat-headers / annexb / no-aud / no-hrd / info / hash=0 / no-temporal-layers / open-gop / min-keyint=23 / keyint=250 / gop-lookahead=0 / bframes=8 / b-adapt=2 / b-pyramid / bframe-bias=0 / rc-lookahead=80 / lookahead-slices=0 / scenecut=40 / radl=0 / no-intra-refresh / ctu=64 / min-cu-size=8 / no-rect / no-amp / max-tu-size=32 / tu-inter-depth=1 / tu-intra-depth=1 / limit-tu=0 / rdoq-level=2 / dynamic-rd=0.00 / no-ssim-rd / signhide / no-tskip / nr-intra=0 / nr-inter=0 / no-constrained-intra / no-strong-intra-smoothing / max-merge=3 / limit-refs=3 / limit-modes / me=3 / subme=5 / merange=57 / temporal-mvp / weightp / no-weightb / no-analyze-src-pics / deblock=-3:-3 / no-sao / no-sao-non-deblock / rd=4 / no-early-skip / rskip / no-fast-intra / no-tskip-fast / no-cu-lossless / no-b-intra / no-splitrd-skip / rdpenalty=0 / psy-rd=2.00 / psy-rdoq=1.70 / no-rd-refine / no-lossless / cbqpoffs=0 / crqpoffs=0 / rc=abr / bitrate=5000 / qcomp=0.60 / qpstep=4 / stats-write=0 / stats-read=2 / cplxblur=20.0 / qblur=0.5 / ipratio=1.40 / pbratio=1.30 / aq-mode=3 / aq-strength=1.00 / cutree / zone-count=0 / no-strict-cbr / qg-size=32 / no-rc-grain / qpmax=69 / qpmin=0 / no-const-vbv / sar=0 / overscan=0 / videoformat=5 / range=0 / colorprim=2 / transfer=2 / colormatrix=2 / chromaloc=0 / display-window=0 / max-cll=0,0 / min-luma=0 / max-luma=1023 / log2-max-poc-lsb=8 / vui-timing-info / vui-hrd-info / slices=1 / no-opt-qp-pps / no-opt-ref-list-length-pps / no-multi-pass-opt-rps / scenecut-bias=0.05 / no-opt-cu-delta-qp / no-aq-motion / no-hdr / no-hdr-opt / no-dhdr10-opt / no-idr-recovery-sei / analysis-reuse-level=5 / scale-factor=0 / refine-intra=0 / refine-inter=0 / refine-mv=0 / no-limit-sao / ctu-info=0 / no-lowpass-dct / refine-mv-type=0 / copy-pic=1 / max-ausize-factor=1.0 / no-dynamic-refine / no-single-sei
Default                                  : Yes
Forced                                   : No

Audio #1
ID                                       : 2
Format                                   :
Format/Info                              : Digital Theater Systems
Codec ID                                 : A_DTS
Duration                                 : 1 h 37 min
Bit rate mode                            : Constant
Bit rate                                 : 1 510 kb/s
Channel(s)                               : 6 channels
Channel positions                        : Front: L C R, Side: L R, LFE
Sampling rate                            : 48.0 kHz
Frame rate                               : 93.750 FPS (512 SPF)
Bit depth                                : 24 bits
Compression mode                         : Lossy
Stream size                              : 1.03 GiB (19%)
Title                                    : БЗ - Не Зупиняй Продакшн
Language                                 : Ukrainian
Default                                  : Yes
Forced                                   : Yes

Audio #2
ID                                       : 3
Format                                   :
Format/Info                              : Digital Theater Systems
Codec ID                                 : A_DTS
Duration                                 : 1 h 37 min
Bit rate mode                            : Constant
Bit rate                                 : 1 510 kb/s
Channel(s)                               : 6 channels
Channel positions                        : Front: L C R, Side: L R, LFE
Sampling rate                            : 48.0 kHz
Frame rate                               : 93.750 FPS (512 SPF)
Bit depth                                : 24 bits
Compression mode                         : Lossy
Stream size                              : 1.03 GiB (19%)
Title                                    : Original
Language                                 : English
Default                                  : No
Forced                                   : No

Text
ID                                       : 4
Format                                   : UTF-8
Codec ID                                 : S_TEXT/UTF8
Codec ID/Info                            : UTF-8 Plain Text
Duration                                 : 1 h 35 min
Bit rate                                 : 60 b/s
Count of elements                        : 1168
Stream size                              : 42.2 KiB (0%)
Title                                    : Full
Language                                 : English
Default                                  : Yes
Forced                                   : No

Menu
00:00:00.000                             : en:Chapter 01
00:08:01.105                             : en:Chapter 02
00:13:54.208                             : en:Chapter 03
00:16:48.632                             : en:Chapter 04
00:21:43.927                             : en:Chapter 05
00:26:57.407                             : en:Chapter 06
00:30:07.180                             : en:Chapter 07
00:36:05.204                             : en:Chapter 08
00:42:33.384                             : en:Chapter 09
00:48:13.849                             : en:Chapter 10
00:54:56.710                             : en:Chapter 11
01:01:41.197                             : en:Chapter 12
01:08:07.208                             : en:Chapter 13
01:14:42.811                             : en:Chapter 14
01:23:29.963                             : en:Chapter 15
01:31:25.313                             : en:Chapter 16
Світлини



3. Крок уперед 3D / Step Up 3D (2010) mini 1080p H.265 Ukr/Eng | Sub Ukr/Eng
Крок уперед 3D / Step Up 3D (2010) mini 1080p H.265 Ukr/Eng | Sub Ukr/Eng

Крок уперед. Колекція / Step Up. Collection (2006-2014) mini 1080p H.265 Ukr/Eng | Sub Eng


Жанр: драма, мюзикл, мелодрама
Країна: США
Кінокомпанія: Summit Entertainment
Режисер: Джон Чу
Актори: Гаррі Шум мол., Адам Дж. Севані, Рік Маламбрі, Шарні Вінсон, Крістофер Скотт, Моніка Дюпрі, Рубі Фелісіано

Сюжет:
Лось, який представляв Мерілендськую школу мистецтв на міжнародному танцювальному турнірі в Парижі, спізнюється на літак до рідного Балтімора. Застрягши у Франції, він заводить дружбу з американцем, що живе тут, і прекрасною Наталі, які знайомлять його з андерграундними денс-підмостками.
Унікальною пластикою Лось швидко справляє враження на танцюристів, які готуються до участі в змаганнях, але напередодні великої події виявляється, що конкуренти вкрали їх номер. Щоб допомогти друзям, Лось звертається за допомогою до однокласників — але чи зможуть вони поставити номер в останню хвилину і перемогти кращих стрітденсерів світу?

Тривалість: 01:47:11
Якість: mini
Відео:
кодек: H.265 (HEVC)
розмір кадру: 1920 x 1080
бітрейт: 5 000 кб/с
частота кадрів: 23.976 fps
біт піксель: 0.101 BPP
бітова глибина: 10 біт
Увага! Перед завантаженням переконайтесь, що ваш пристрій відтворення (та/або ПЗ) підтримує H.265 (HEVC)

Аудіо # 1:
мова: українська
переклад: професійний дубльований
кодек: AC-3 5.1
бітрейт: 384 кб/с

Аудіо # 2:
мова: англійська
переклад: оригінал
кодек: AC-3 5.1
бітрейт: 384 кб/с

Субтитри # 1:
мова: українська (Full),
тип: програмні (м'які)
формат: *.srt

Субтитри # 2:
мова: англійська (Full),
тип: програмні (м'які)
формат: *.srt


Info
Код:
General
Unique ID                                : 189319748271281102185656997367695526544 (0x8E6DA83FF5BF4DE828001E52FBDFCA90)
Complete name                            : F:\Video\Collection\Films\Step Up. Collection\3. Step Up 3D (2010) 1080p H.265 [UKR_ENG].
Format                                   :
Format version                           : Version 4 / Version 2
File size                                : 4.32 GiB
Duration                                 : 1 h 47 min
Overall bit rate                         : 5 770 kb/s
Movie name                               : Step Up 3D (2010)
Encoded date                             : UTC 2019-01-30 13:52:00
Writing application                      : v20.0.0 ('I Am The Sun') 64-bit
Writing library                          : libebml v1.3.5 + v1.4.8
Cover                                    : Yes
Attachments                              : cover.jpg

Video
ID                                       : 1
Format                                   : HEVC
Format/Info                              : High Efficiency Video Coding
Format profile                           : Main [email protected]@Main
Codec ID                                 : V_MPEGH/ISO/HEVC
Duration                                 : 1 h 47 min
Bit rate                                 : 5 000 kb/s
Width                                    : 1 920 pixels
Height                                   : 1 080 pixels
Display aspect ratio                     : 16:9
Frame rate mode                          : Constant
Frame rate                               : 23.976 (24000/1001) FPS
Color space                              : YUV
Chroma subsampling                       : 4:2:0
Bit depth                                : 10 bits
Bits/(Pixel*Frame)                       : 0.101
Stream size                              : 3.74 GiB (87%)
Title                                    : Step Up 3D (2010)
Writing library                          : x265 2.6+31-3712d13c09bf:[Windows][GCC 7.2.0][64 bit] 10bit
Encoding settings                        : cpuid=1173503 / frame-threads=2 / numa-pools=4 / wpp / no-pmode / no-pme / no-psnr / no-ssim / log-level=2 / input-csp=1 / input-res=1920x1080 / interlace=0 / total-frames=154199 / level-idc=0 / high-tier=1 / uhd-bd=0 / ref=4 / no-allow-non-conformance / no-repeat-headers / annexb / no-aud / no-hrd / info / hash=0 / no-temporal-layers / open-gop / min-keyint=23 / keyint=250 / gop-lookahead=0 / bframes=8 / b-adapt=2 / b-pyramid / bframe-bias=0 / rc-lookahead=80 / lookahead-slices=0 / scenecut=40 / radl=0 / no-intra-refresh / ctu=64 / min-cu-size=8 / no-rect / no-amp / max-tu-size=32 / tu-inter-depth=1 / tu-intra-depth=1 / limit-tu=0 / rdoq-level=2 / dynamic-rd=0.00 / no-ssim-rd / signhide / no-tskip / nr-intra=0 / nr-inter=0 / no-constrained-intra / no-strong-intra-smoothing / max-merge=3 / limit-refs=3 / limit-modes / me=3 / subme=5 / merange=57 / temporal-mvp / weightp / no-weightb / no-analyze-src-pics / deblock=-3:-3 / no-sao / no-sao-non-deblock / rd=4 / no-early-skip / rskip / no-fast-intra / no-tskip-fast / no-cu-lossless / no-b-intra / no-splitrd-skip / rdpenalty=0 / psy-rd=2.00 / psy-rdoq=1.70 / no-rd-refine / no-lossless / cbqpoffs=0 / crqpoffs=0 / rc=abr / bitrate=5000 / qcomp=0.60 / qpstep=4 / stats-write=0 / stats-read=2 / cplxblur=20.0 / qblur=0.5 / ipratio=1.40 / pbratio=1.30 / aq-mode=3 / aq-strength=1.00 / cutree / zone-count=0 / no-strict-cbr / qg-size=32 / no-rc-grain / qpmax=69 / qpmin=0 / no-const-vbv / sar=0 / overscan=0 / videoformat=5 / range=0 / colorprim=2 / transfer=2 / colormatrix=2 / chromaloc=0 / display-window=0 / max-cll=0,0 / min-luma=0 / max-luma=1023 / log2-max-poc-lsb=8 / vui-timing-info / vui-hrd-info / slices=1 / no-opt-qp-pps / no-opt-ref-list-length-pps / no-multi-pass-opt-rps / scenecut-bias=0.05 / no-opt-cu-delta-qp / no-aq-motion / no-hdr / no-hdr-opt / no-dhdr10-opt / analysis-reuse-level=5 / scale-factor=0 / refine-intra=0 / refine-inter=0 / refine-mv=0 / no-limit-sao / ctu-info=0 / no-lowpass-dct / refine-mv-type=0 / copy-pic=1
Default                                  : Yes
Forced                                   : No

Audio #1
ID                                       : 2
Format                                   : AC-3
Format/Info                              : Audio Coding 3
Codec ID                                 : A_AC3
Duration                                 : 1 h 47 min
Bit rate mode                            : Constant
Bit rate                                 : 384 kb/s
Channel(s)                               : 6 channels
Channel positions                        : Front: L C R, Side: L R, LFE
Sampling rate                            : 48.0 kHz
Frame rate                               : 31.250 FPS (1536 SPF)
Bit depth                                : 16 bits
Compression mode                         : Lossy
Stream size                              : 294 MiB (7%)
Title                                    : ПД - DVD
Language                                 : Ukrainian
Service kind                             : Complete Main
Default                                  : Yes
Forced                                   : No

Audio #2
ID                                       : 3
Format                                   : AC-3
Format/Info                              : Audio Coding 3
Codec ID                                 : A_AC3
Duration                                 : 1 h 47 min
Bit rate mode                            : Constant
Bit rate                                 : 384 kb/s
Channel(s)                               : 6 channels
Channel positions                        : Front: L C R, Side: L R, LFE
Sampling rate                            : 48.0 kHz
Frame rate                               : 31.250 FPS (1536 SPF)
Bit depth                                : 16 bits
Compression mode                         : Lossy
Stream size                              : 294 MiB (7%)
Title                                    : Original
Language                                 : English
Service kind                             : Complete Main
Default                                  : No
Forced                                   : No

Text #1
ID                                       : 4
Format                                   : UTF-8
Codec ID                                 : S_TEXT/UTF8
Codec ID/Info                            : UTF-8 Plain Text
Duration                                 : 1 h 38 min
Bit rate                                 : 86 b/s
Count of elements                        : 1313
Stream size                              : 62.3 KiB (0%)
Title                                    : Full
Language                                 : Ukrainian
Default                                  : No
Forced                                   : No

Text #2
ID                                       : 5
Format                                   : UTF-8
Codec ID                                 : S_TEXT/UTF8
Codec ID/Info                            : UTF-8 Plain Text
Duration                                 : 1 h 38 min
Bit rate                                 : 55 b/s
Count of elements                        : 1117
Stream size                              : 40.4 KiB (0%)
Title                                    : Full
Language                                 : English
Default                                  : No
Forced                                   : No

Menu
00:00:00.000                             : en:Chapter 1
00:04:30.854                             : en:Chapter 2
00:09:58.681                             : en:Chapter 3
00:15:26.759                             : en:Chapter 4
00:20:01.784                             : en:Chapter 5
00:24:44.149                             : en:Chapter 6
00:29:44.199                             : en:Chapter 7
00:37:10.311                             : en:Chapter 8
00:41:22.271                             : en:Chapter 9
00:45:44.700                             : en:Chapter 10
00:49:22.084                             : en:Chapter 11
00:56:06.363                             : en:Chapter 12
01:00:27.624                             : en:Chapter 13
01:05:34.097                             : en:Chapter 14
01:12:26.801                             : en:Chapter 15
01:19:02.655                             : en:Chapter 16
01:24:22.766                             : en:Chapter 17
01:30:23.668                             : en:Chapter 18
01:35:01.696                             : en:Chapter 19
01:40:01.078                             : en:Chapter 20
Світлини



4. Крок уперед 4: Революція / Step Up 4: Revolution (2012) 1080p H.265 Ukr/Eng | Sub Eng
Крок уперед 4: Революція / Step Up 4: Revolution (2012) 1080p H.265 Ukr/Eng | Sub Eng

Крок уперед. Колекція / Step Up. Collection (2006-2014) mini 1080p H.265 Ukr/Eng | Sub Eng


Жанр: драма, музичний, романтичний
Країна: США
Кінокомпанія: Offspring Entertainment, Summit Entertainment
Режисер: Скотт Спір
Актори: Адам Дж. Севані, Елісон Стоунер, Тодд Алан Даркін, Кетрін Маккормік, Райан Гусман Теренс Діксон, Аджа Джордж, Міша Гебріел Хемілтон, Джошуа Дрю

Сюжет:
Емілі, дочка впливового бізнесмена, приїжджає у Маямі з наміром стати професійною танцівницею, але закохується в Шона - юнака, танцювальна трупа якого влаштовує музичні флешмоби...

Тривалість: 01:38:38
Якість:
Відео:
кодек: H.265 (HEVC)
розмір кадру: 1920 x 800
бітрейт: 4 999 кб/с
частота кадрів: 23.976 fps
біт піксель: 0.136 BPP
бітова глибина: 10 біт
Увага! Перед завантаженням переконайтесь, що ваш пристрій відтворення (та/або ПЗ) підтримує H.265 (HEVC)

Аудіо # 1:
мова: українська
переклад: професійний дубльований
кодек: 5.1
бітрейт: 1510 кб/с

Аудіо # 2:
мова: англійська
переклад: оригінал
кодек: 5.1
бітрейт: 1510 кб/с

Субтитри # 1:
мова: англійська (Full),
тип: програмні (м'які)
формат: *.srt


Info
Код:
General
Unique ID                                : 103182067908857040776308340635042473885 (0x4DA024B7E3F877605945460C4EA6679D)
Complete name                            : F:\Video\Collection\Films\Step Up. Collection\4. Step Up Revolution (2012) 1080p H.265 [UKR_ENG].
Format                                   :
Format version                           : Version 4 / Version 2
File size                                : 5.53 GiB
Duration                                 : 1 h 38 min
Overall bit rate                         : 8 020 kb/s
Movie name                               : Step Up Revolution (2012)
Encoded date                             : UTC 2019-01-31 11:36:38
Writing application                      : v20.0.0 ('I Am The Sun') 64-bit
Writing library                          : libebml v1.3.5 + v1.4.8
Cover                                    : Yes
Attachments                              : cover1.jpg

Video
ID                                       : 1
Format                                   : HEVC
Format/Info                              : High Efficiency Video Coding
Format profile                           : Main [email protected]@Main
Codec ID                                 : V_MPEGH/ISO/HEVC
Duration                                 : 1 h 38 min
Bit rate                                 : 4 999 kb/s
Width                                    : 1 920 pixels
Height                                   : 800 pixels
Display aspect ratio                     : 2.40:1
Frame rate mode                          : Constant
Frame rate                               : 23.976 (24000/1001) FPS
Color space                              : YUV
Chroma subsampling                       : 4:2:0
Bit depth                                : 10 bits
Bits/(Pixel*Frame)                       : 0.136
Stream size                              : 3.44 GiB (62%)
Title                                    : Step Up Revolution (2012)
Writing library                          : x265 2.8+12-9cde2c278464:[Windows][MSVC 1900][64 bit] 10bit
Encoding settings                        : cpuid=1111039 / frame-threads=3 / numa-pools=8 / wpp / no-pmode / no-pme / no-psnr / no-ssim / log-level=2 / input-csp=1 / input-res=1920x800 / interlace=0 / total-frames=141913 / level-idc=0 / high-tier=1 / uhd-bd=0 / ref=4 / no-allow-non-conformance / no-repeat-headers / annexb / no-aud / no-hrd / info / hash=0 / no-temporal-layers / open-gop / min-keyint=23 / keyint=250 / gop-lookahead=0 / bframes=8 / b-adapt=2 / b-pyramid / bframe-bias=0 / rc-lookahead=80 / lookahead-slices=0 / scenecut=40 / radl=0 / no-intra-refresh / ctu=64 / min-cu-size=8 / no-rect / no-amp / max-tu-size=32 / tu-inter-depth=1 / tu-intra-depth=1 / limit-tu=0 / rdoq-level=2 / dynamic-rd=0.00 / no-ssim-rd / signhide / no-tskip / nr-intra=0 / nr-inter=0 / no-constrained-intra / no-strong-intra-smoothing / max-merge=3 / limit-refs=3 / limit-modes / me=3 / subme=5 / merange=57 / temporal-mvp / weightp / no-weightb / no-analyze-src-pics / deblock=-3:-3 / no-sao / no-sao-non-deblock / rd=4 / no-early-skip / rskip / no-fast-intra / no-tskip-fast / no-cu-lossless / no-b-intra / no-splitrd-skip / rdpenalty=0 / psy-rd=2.00 / psy-rdoq=1.70 / no-rd-refine / no-lossless / cbqpoffs=0 / crqpoffs=0 / rc=abr / bitrate=5000 / qcomp=0.60 / qpstep=4 / stats-write=0 / stats-read=2 / cplxblur=20.0 / qblur=0.5 / ipratio=1.40 / pbratio=1.30 / aq-mode=3 / aq-strength=0.80 / cutree / zone-count=0 / no-strict-cbr / qg-size=32 / no-rc-grain / qpmax=69 / qpmin=0 / no-const-vbv / sar=0 / overscan=0 / videoformat=5 / range=0 / colorprim=2 / transfer=2 / colormatrix=2 / chromaloc=0 / display-window=0 / max-cll=0,0 / min-luma=0 / max-luma=1023 / log2-max-poc-lsb=8 / vui-timing-info / vui-hrd-info / slices=1 / no-opt-qp-pps / no-opt-ref-list-length-pps / no-multi-pass-opt-rps / scenecut-bias=0.05 / no-opt-cu-delta-qp / no-aq-motion / no-hdr / no-hdr-opt / no-dhdr10-opt / no-idr-recovery-sei / analysis-reuse-level=5 / scale-factor=0 / refine-intra=0 / refine-inter=0 / refine-mv=0 / no-limit-sao / ctu-info=0 / no-lowpass-dct / refine-mv-type=0 / copy-pic=1 / max-ausize-factor=1.0 / no-dynamic-refine / no-single-sei
Default                                  : Yes
Forced                                   : No

Audio #1
ID                                       : 2
Format                                   :
Format/Info                              : Digital Theater Systems
Codec ID                                 : A_DTS
Duration                                 : 1 h 38 min
Bit rate mode                            : Constant
Bit rate                                 : 1 509 kb/s
Channel(s)                               : 6 channels
Channel positions                        : Front: L C R, Side: L R, LFE
Sampling rate                            : 48.0 kHz
Frame rate                               : 93.750 FPS (512 SPF)
Bit depth                                : 24 bits
Compression mode                         : Lossy
Stream size                              : 1.04 GiB (19%)
Title                                    : ПД - Blu-Ray
Language                                 : Ukrainian
Default                                  : Yes
Forced                                   : Yes

Audio #2
ID                                       : 3
Format                                   :
Format/Info                              : Digital Theater Systems
Codec ID                                 : A_DTS
Duration                                 : 1 h 38 min
Bit rate mode                            : Constant
Bit rate                                 : 1 509 kb/s
Channel(s)                               : 6 channels
Channel positions                        : Front: L C R, Side: L R, LFE
Sampling rate                            : 48.0 kHz
Frame rate                               : 93.750 FPS (512 SPF)
Bit depth                                : 24 bits
Compression mode                         : Lossy
Stream size                              : 1.04 GiB (19%)
Title                                    : Original
Language                                 : English
Default                                  : No
Forced                                   : No

Text
ID                                       : 4
Format                                   : UTF-8
Codec ID                                 : S_TEXT/UTF8
Codec ID/Info                            : UTF-8 Plain Text
Duration                                 : 1 h 30 min
Bit rate                                 : 53 b/s
Count of elements                        : 938
Stream size                              : 35.5 KiB (0%)
Title                                    : Full
Language                                 : English
Default                                  : Yes
Forced                                   : No

Menu
00:00:00.000                             : en:00:00:00.000
00:05:36.836                             : en:00:05:36.836
00:07:25.236                             : en:00:07:25.236
00:11:46.915                             : en:00:11:46.915
00:14:00.465                             : en:00:14:00.465
00:16:54.513                             : en:00:16:54.513
00:20:22.680                             : en:00:20:22.680
00:23:16.228                             : en:00:23:16.228
00:27:37.990                             : en:00:27:37.990
00:32:30.323                             : en:00:32:30.323
00:36:58.383                             : en:00:36:58.383
00:39:49.387                             : en:00:39:49.387
00:42:43.478                             : en:00:42:43.478
00:45:50.081                             : en:00:45:50.081
00:49:37.141                             : en:00:49:37.141
00:56:35.642                             : en:00:56:35.642
00:58:43.979                             : en:00:58:43.979
01:02:47.097                             : en:01:02:47.097
01:07:05.939                             : en:01:07:05.939
01:11:52.391                             : en:01:11:52.391
01:15:35.072                             : en:01:15:35.072
01:17:22.847                             : en:01:17:22.847
01:26:01.865                             : en:01:26:01.865
01:31:32.195                             : en:01:31:32.195
Світлини



5. Крок вперед. Все або нічого / Step Up All In (2014) mini 1080p H.265 Ukr/Eng | Sub Eng
Крок вперед. Все або нічого / Step Up All In (2014) mini 1080p H.265 Ukr/Eng | Sub Eng

Крок уперед. Колекція / Step Up. Collection (2006-2014) mini 1080p H.265 Ukr/Eng | Sub Eng


Жанр: драма, музичний, романтичний
Країна: США
Кінокомпанія: Offspring Entertainment, Summit Entertainment
Режисер: Тріш Сі / Trish Sie
Актори: Раян Ґузман / Ryan Guzman, Бріана Евіґан / Briana Evigan, Стівен Босс / Stephen Boss, Міша Ґебріел Гемільтон / Misha Gabriel Hamilton, Ізабелла Міко / Izabella Miko, Елісон Стоунер / Alyson Stoner, Адам Дж. Севані / Adam G. Sevani та інші

Сюжет:
У сяючому Лас-Веґасі кращі танцюристи планети зійдуться в батлі, який вирішить все. Талановитий самоучка Шон і красуня Енді, які мріють про славу та багатство, візьмуть участь у популярному реаліті-шоу і кинуть виклик «непереможним» командам, а головне - самим собі. Чи зможуть вони подолати страх, пережити зраду і приборкати пристрасть, щоб стати першими і здійснити свої мрії?

Тривалість: 01:51:51
Якість:
Відео:
кодек: H.265 (HEVC)
розмір кадру: 1920 x 1080
бітрейт: 4 999 кб/с
частота кадрів: 23.976 fps
біт піксель: 0.101 BPP
бітова глибина: 10 біт
Увага! Перед завантаженням переконайтесь, що ваш пристрій відтворення (та/або ПЗ) підтримує H.265 (HEVC)

Аудіо # 1:
мова: українська
переклад: професійний дубльований
кодек: AC-3 2.0
бітрейт: 192 кб/с

Аудіо # 2:
мова: англійська
переклад: оригінал
кодек: 5.1
бітрейт: 459 кб/с

Субтитри # 1:
мова: англійська (Full),
тип: програмні (м'які)
формат: *.srt


Info
Код:
General
Unique ID                                : 260858395023177662396359345380449293443 (0xC43F7FDA1EA7C3BF31199C46C2CB9483)
Complete name                            : F:\Video\Collection\Films\Step Up. Collection\5. Step Up All In (2014) 1080p H.265 [UKR_ENG].
Format                                   :
Format version                           : Version 4 / Version 2
File size                                : 4.42 GiB
Duration                                 : 1 h 51 min
Overall bit rate                         : 5 653 kb/s
Movie name                               : Step Up All In (2014)
Encoded date                             : UTC 2019-01-30 11:21:09
Writing application                      : v20.0.0 ('I Am The Sun') 64-bit
Writing library                          : libebml v1.3.5 + v1.4.8
Cover                                    : Yes
Attachments                              : cover1.jpg

Video
ID                                       : 1
Format                                   : HEVC
Format/Info                              : High Efficiency Video Coding
Format profile                           : Main [email protected]@Main
Codec ID                                 : V_MPEGH/ISO/HEVC
Duration                                 : 1 h 51 min
Bit rate                                 : 4 999 kb/s
Width                                    : 1 920 pixels
Height                                   : 1 080 pixels
Display aspect ratio                     : 16:9
Frame rate mode                          : Constant
Frame rate                               : 23.976 (24000/1001) FPS
Color space                              : YUV
Chroma subsampling                       : 4:2:0
Bit depth                                : 10 bits
Bits/(Pixel*Frame)                       : 0.101
Stream size                              : 3.91 GiB (88%)
Title                                    : Step Up All In (2014)
Writing library                          : x265 2.8+12-9cde2c278464:[Windows][MSVC 1900][64 bit] 10bit
Encoding settings                        : cpuid=1111039 / frame-threads=3 / numa-pools=8 / wpp / no-pmode / no-pme / no-psnr / no-ssim / log-level=2 / input-csp=1 / input-res=1920x1080 / interlace=0 / total-frames=160920 / level-idc=0 / high-tier=1 / uhd-bd=0 / ref=4 / no-allow-non-conformance / no-repeat-headers / annexb / no-aud / no-hrd / info / hash=0 / no-temporal-layers / open-gop / min-keyint=23 / keyint=250 / gop-lookahead=0 / bframes=8 / b-adapt=2 / b-pyramid / bframe-bias=0 / rc-lookahead=80 / lookahead-slices=0 / scenecut=40 / radl=0 / no-intra-refresh / ctu=64 / min-cu-size=8 / no-rect / no-amp / max-tu-size=32 / tu-inter-depth=1 / tu-intra-depth=1 / limit-tu=0 / rdoq-level=2 / dynamic-rd=0.00 / no-ssim-rd / signhide / no-tskip / nr-intra=0 / nr-inter=0 / no-constrained-intra / no-strong-intra-smoothing / max-merge=3 / limit-refs=3 / limit-modes / me=3 / subme=5 / merange=57 / temporal-mvp / weightp / no-weightb / no-analyze-src-pics / deblock=-3:-3 / no-sao / no-sao-non-deblock / rd=4 / no-early-skip / rskip / no-fast-intra / no-tskip-fast / no-cu-lossless / no-b-intra / no-splitrd-skip / rdpenalty=0 / psy-rd=2.00 / psy-rdoq=1.70 / no-rd-refine / no-lossless / cbqpoffs=0 / crqpoffs=0 / rc=abr / bitrate=5000 / qcomp=0.60 / qpstep=4 / stats-write=0 / stats-read=2 / cplxblur=20.0 / qblur=0.5 / ipratio=1.40 / pbratio=1.30 / aq-mode=3 / aq-strength=0.80 / cutree / zone-count=0 / no-strict-cbr / qg-size=32 / no-rc-grain / qpmax=69 / qpmin=0 / no-const-vbv / sar=0 / overscan=0 / videoformat=5 / range=0 / colorprim=2 / transfer=2 / colormatrix=2 / chromaloc=0 / display-window=0 / max-cll=0,0 / min-luma=0 / max-luma=1023 / log2-max-poc-lsb=8 / vui-timing-info / vui-hrd-info / slices=1 / no-opt-qp-pps / no-opt-ref-list-length-pps / no-multi-pass-opt-rps / scenecut-bias=0.05 / no-opt-cu-delta-qp / no-aq-motion / no-hdr / no-hdr-opt / no-dhdr10-opt / no-idr-recovery-sei / analysis-reuse-level=5 / scale-factor=0 / refine-intra=0 / refine-inter=0 / refine-mv=0 / no-limit-sao / ctu-info=0 / no-lowpass-dct / refine-mv-type=0 / copy-pic=1 / max-ausize-factor=1.0 / no-dynamic-refine / no-single-sei
Default                                  : Yes
Forced                                   : No

Audio #1
ID                                       : 2
Format                                   : AC-3
Format/Info                              : Audio Coding 3
Codec ID                                 : A_AC3
Duration                                 : 1 h 51 min
Bit rate mode                            : Constant
Bit rate                                 : 192 kb/s
Channel(s)                               : 2 channels
Channel positions                        : Front: L R
Sampling rate                            : 48.0 kHz
Frame rate                               : 31.250 FPS (1536 SPF)
Bit depth                                : 16 bits
Compression mode                         : Lossy
Stream size                              : 154 MiB (3%)
Title                                    : ПД - Megogo
Language                                 : Ukrainian
Service kind                             : Complete Main
Default                                  : Yes
Forced                                   : Yes

Audio #2
ID                                       : 3
Format                                   :
Format/Info                              : Advanced Audio Codec
Format profile                           : LC
Codec ID                                 : A_AAC-2
Duration                                 : 1 h 51 min
Bit rate                                 : 459 kb/s
Channel(s)                               : 6 channels
Channel positions                        : Front: L C R, Side: L R, LFE
Sampling rate                            : 48.0 kHz
Frame rate                               : 46.875 FPS (1024 SPF)
Compression mode                         : Lossy
Delay relative to video                  : 20 ms
Stream size                              : 367 MiB (8%)
Title                                    : Original
Language                                 : English
Default                                  : No
Forced                                   : No

Text
ID                                       : 4
Format                                   : UTF-8
Codec ID                                 : S_TEXT/UTF8
Codec ID/Info                            : UTF-8 Plain Text
Duration                                 : 1 h 48 min
Bit rate                                 : 50 b/s
Count of elements                        : 1308
Stream size                              : 40.0 KiB (0%)
Title                                    : Full
Language                                 : English
Default                                  : Yes
Forced                                   : No

Menu
00:00:00.000                             : en:Chapter 01
00:05:40.340                             : en:Chapter 02
00:12:05.933                             : en:Chapter 03
00:22:48.617                             : en:Chapter 04
00:28:10.897                             : en:Chapter 05
00:35:50.731                             : en:Chapter 06
00:40:40.855                             : en:Chapter 07
00:51:09.024                             : en:Chapter 08
00:57:54.554                             : en:Chapter 09
01:03:10.244                             : en:Chapter 10
01:07:06.230                             : en:Chapter 11
01:14:24.042                             : en:Chapter 12
01:26:01.739                             : en:Chapter 13
01:29:24.108                             : en:Chapter 14
01:36:00.337                             : en:Chapter 15
01:45:41.918                             : en:Chapter 16
Світлини





Джерело: &
Особиста оцінка: 10 - без зайвих вагань рекомендую всім!


Бронзовий реліз (на рейтинг впливає 75% завантаженого)
 Трекер:    Зареєстрований   

Завантажити / скачати фільм українською



відео для новачків



 Зареєстрований:   2019-02-04 21:12
 Розмір:   24.33 GB 
 Оцінка фільму:   9.8/10 (Голосів: 4)
   
Інші релізи
acid99max 
Новенький


З нами з: 12.05.10
Востаннє: 14.12.19
Повідомлень: 7

2019-03-08 16:34  
вітаю. в мене проблеми зі звуком в другій частині - шипить. я один такий чи в когось аналогічна проблема?
Ваш часовий пояс: GMT + 2 Години

Нова тема   Відповісти