Пастка для батьків / The Parent Trap (1998) 720p 2xUkr/Eng | Sub Eng

Нові коментарі

Нова тема   Відповісти
Автор Повідомлення
Anonymous 







2019-02-04 20:11  
Пастка для батьків / The Parent Trap (1998) 720p 2xUkr/Eng | Sub Eng

Пастка для батьків / The Parent Trap (1998) 720p 2xUkr/Eng | Sub Eng
Оригінальна обкладинка:


Жанр: драма, мелодрама, комедія, пригодницький, сімейний
Країна: США



Кінокомпанія: Cinema Vehicle Services, The Meyers/Shyer Company, Walt Disney Pictures
Режисер: Ненсі Меєрс / Nancy Meyers
Актори: Ліндсі Лохан / Lindsay Lohan, Деніс Квейд / Dennis Quaid, Наташа Річардсон / Natasha Richardson, Елейн Гендрікс / Elaine Hendrix, Ліза Ен Волтер / Lisa Ann Walter, Саймон Кунц / Simon Kunz, Поллі Голідей / Polly Holliday, Меґґі Вілер / Maggie Wheeler, Роні Стівенс / Ronnie Stevens, Джоенна Барнс / Joanna Barnes та інші

Сюжет:
Юна Геллі Паркер живе в сонячній Каліфорнії з найкращим батьком на світі, а її ровесниця Ені Джеймс - в туманному Лондоні з чудовою люблячою матір'ю. Перша мріє про маму, без якої їй дуже важко, а другій так хочеться, щоб у неї був тато. Коли дівчатка випадково зустрічаються в літньому таборі, з'ясовується, що вони... близнюки! Їхні батьки розлучилися багато років тому, і дівчатка вирішують виправити цю помилку. Сестрички починають діяти: американка їде в Лондон, а англійка - в Америку...


Тривалість: 02:08:01
Якість: 720p
Відео:
кодек:
розмір кадру: 1280 x 694
бітрейт: 6482 кб/с

Аудіо # 1: ( + по )
мова: українська
переклад: двоголосий закадровий | Студія 1+1
ролі озвучили: Микола Козій і Лідія Муращенко
кодек: 2.0
бітрейт: 192 кб/с

Аудіо # 2:
мова: українська
переклад: двоголосий закадровий
ролі озвучили: Євген Пашин і Тетяна Антонова
кодек: 2.0
бітрейт: 192 кб/с

Аудіо # 3:
мова: англійська
переклад: оригінал
кодек: 5.1
бітрейт: 448 кб/с

Субтитри:
мова: англійська
тип: програмні (м'які)
формат: *.srt

Збережено оригінальні розділи, як на Blu-ray
Info
Код:

Complete name               : The Parent Trap (1998) [2xUkr,Eng sub.Eng] 720p [Hurtom].
Format                      :
Format version              : Version 4
File size                   : 6.54 GiB
Duration                    : 2 h 8 min
Overall bit rate            : 7 312 kb/s
Movie name                  : Пастка для батьків / The Parent Trap (1998) [2xUkr,Eng sub.Eng] 720p [Hurtom]
Encoded date                : UTC 2019-02-04 13:56:25
Writing application         : v30.1.0 ('Forever And More') 64-bit
Writing library             : libebml v1.3.6 + v1.4.9
Cover                       : Yes
Attachments                 : cover.jpg

Video
ID                          : 1
Format                      : AVC
Format/Info                 : Advanced Video Codec
Format profile              : [email protected]
Format settings             : CABAC / 9 Ref Frames
Format settings, CABAC      : Yes
Format settings, ReFrames   : 9 frames
Codec ID                    : V_MPEG4/ISO/AVC
Duration                    : 2 h 8 min
Bit rate                    : 6 482 kb/s
Width                       : 1 280 pixels
Height                      : 694 pixels
Display aspect ratio        : 1.85:1
Frame rate mode             : Constant
Frame rate                  : 23.976 (24000/1001) FPS
Color space                 : YUV
Chroma subsampling          : 4:2:0
Bit depth                   : 8 bits
Scan type                   : Progressive
Bits/(Pixel*Frame)          : 0.304
Stream size                 : 5.80 GiB (89%)
Title                       : Пастка для батьків / The Parent Trap (1998) 720p [msltel]
Writing library             : core 155 r2901 7d0ff22
Encoding settings           : cabac=1 / ref=9 / deblock=1:-3:-2 / analyse=0x3:0x113 / me=umh / subme=11 / psy=1 / psy_rd=1.00:0.15 / mixed_ref=1 / me_range=32 / chroma_me=1 / trellis=2 / 8x8dct=1 / cqm=0 / deadzone=21,11 / fast_pskip=0 / chroma_qp_offset=-3 / threads=6 / lookahead_threads=1 / sliced_threads=0 / nr=0 / decimate=1 / interlaced=0 / bluray_compat=0 / constrained_intra=0 / bframes=13 / b_pyramid=2 / b_adapt=2 / b_bias=0 / direct=1 / weightb=1 / open_gop=0 / weightp=2 / keyint=230 / keyint_min=23 / scenecut=40 / intra_refresh=0 / rc_lookahead=40 / rc=crf / mbtree=1 / crf=17.9 / qcomp=0.60 / qpmin=0 / qpmax=69 / qpstep=4 / vbv_maxrate=62500 / vbv_bufsize=78125 / crf_max=0.0 / nal_hrd=none / filler=0 / ip_ratio=1.40 / aq=1:1.00
Language                    : English
Default                     : Yes
Forced                      : No

Audio #1
ID                          : 2
Format                      : AC-3
Format/Info                 : Audio Coding 3
Commercial name             : Dolby Digital
Codec ID                    : A_AC3
Duration                    : 2 h 8 min
Bit rate mode               : Constant
Bit rate                    : 192 kb/s
Channel(s)                  : 2 channels
Channel layout              : L R
Sampling rate               : 48.0 kHz
Frame rate                  : 31.250 FPS (1536 SPF)
Bit depth                   : 16 bits
Compression mode            : Lossy
Stream size                 : 176 MiB (3%)
Title                       : DVO [1+1], 2.0 192 Kbps
Language                    : Ukrainian
Service kind                : Complete Main
Default                     : Yes
Forced                      : No

Audio #2
ID                          : 3
Format                      : AC-3
Format/Info                 : Audio Coding 3
Commercial name             : Dolby Digital
Codec ID                    : A_AC3
Duration                    : 2 h 8 min
Bit rate mode               : Constant
Bit rate                    : 192 kb/s
Channel(s)                  : 2 channels
Channel layout              : L R
Sampling rate               : 48.0 kHz
Frame rate                  : 31.250 FPS (1536 SPF)
Bit depth                   : 16 bits
Compression mode            : Lossy
Stream size                 : 176 MiB (3%)
Title                       : DVO [Novyj], 2.0 192 Kbps
Language                    : Ukrainian
Service kind                : Complete Main
Default                     : No
Forced                      : No

Audio #3
ID                          : 4
Format                      : AC-3
Format/Info                 : Audio Coding 3
Commercial name             : Dolby Digital
Codec ID                    : A_AC3
Duration                    : 2 h 8 min
Bit rate mode               : Constant
Bit rate                    : 448 kb/s
Channel(s)                  : 6 channels
Channel layout              : L R C LFE Ls Rs
Sampling rate               : 48.0 kHz
Frame rate                  : 31.250 FPS (1536 SPF)
Bit depth                   : 16 bits
Compression mode            : Lossy
Stream size                 : 411 MiB (6%)
Title                       : Original, 5.1 448 Kbps
Language                    : English
Service kind                : Complete Main
Default                     : No
Forced                      : No

Text
ID                          : 5
Format                      : UTF-8
Codec ID                    : S_TEXT/UTF8
Codec ID/Info               : UTF-8 Plain Text
Duration                    : 2 h 1 min
Bit rate                    : 70 b/s
Count of elements           : 1505
Stream size                 : 63.2 KiB (0%)
Language                    : English
Default                     : No
Forced                      : No

Menu
00:00:00.000                : en:Opening Credits
00:03:27.957                : en:Camp Walden
00:12:06.142                : en:A Royal Flush
00:21:23.824                : en:Ripped Down the Middle
00:28:01.763                : en:Missed You
00:38:03.656                : en:The "F" Word
00:45:06.578                : en:Napa Airport
00:57:37.245                : en:The "M" Word
01:08:23.724                : en:Bit of a Shock
01:13:17.101                : en:What to Wear?
01:25:57.861                : en:Drip-Dry
01:41:16.028                : en:Camping
01:52:57.937                : en:Goodbyes
02:02:22.126                : en:End Credits


Джерело: &
Подяки: п. servus12, karvai0, omm, rooster, drop_plz.


Срібний реліз (на рейтинг впливає 50% завантаженого)
 Трекер:    Зареєстрований   

Завантажити / скачати фільм українською



відео для новачків



 Зареєстрований:   2019-02-04 20:11
 Розмір:   6.54 GB 
 Оцінка фільму:   10/10 (Голосів: 6)
   
Інші релізи
Ваш часовий пояс: GMT + 2 Години

Нова тема   Відповісти