Парадокс "Кловерфілда" / The Cloverfield Paradox (2018) 1080p H.265 Eng | Sub Ukr/Eng

Нові коментарі

Нова тема   Відповісти
Автор Повідомлення
Anonymous 







2019-02-04 19:07  
Парадокс "Кловерфілда" / The Cloverfield Paradox (2018) 1080p H.265 Eng | Sub Ukr/Eng

Парадокс "Кловерфілда" / The Cloverfield Paradox (2018) 1080p H.265 Eng | Sub Ukr/Eng


Жанр: фантастика, трилер, жахи
Країна: США
Кінокомпанія: Bad Robot, Paramount Pictures
Режисер: Джуліус Она
Актори: Ґуґу Мбата-Роу, Девід Оєлово, Даніель Брюль та інші

Сюжет:
Фільм розповідає про групу астронавтів, які прибувають на орбітальну станцію "Кловерфілд", щоб проводити досліди над нещодавно відкритою матерією, яку ще називають "Частка Бога". Проте найменша помилка в цих експериментах може призвести до непередбачуваних наслідків. Фільм є частиною франшизи "Кловерфілд" разом з картинами "Монстро" (2008) і "Вулиця Монстро, 10" (2016).

Тривалість: 01:41:48
Якість:
Відео:
кодек: H.265 (HEVC)
розмір кадру: 1920 x 800
бітрейт: 6 849 кб/с
частота кадрів: 23.976 fps
біт піксель: 0.186 BPP
бітова глибина: 10 біт
Увага! Перед завантаженням переконайтесь, що ваш пристрій відтворення (та/або ПЗ) підтримує H.265 (HEVC)

Аудіо # 1:
мова: англійська
переклад: оригінал
кодек: AC-3 5.1
бітрейт: 640 кб/с

Субтитри # 1:
мова: українська (Full),
тип: програмні (м'які)
формат: *.srt
переклад з англ: krigg070

Субтитри # 2:
мова: англійська (Forced),
тип: програмні (м'які)
формат: *.srt

Субтитри # 3:
мова: англійська (SDH),
тип: програмні (м'які)
формат: *.srt


Info
Код:
General
Unique ID                                : 97900994926694210515258606628964309325 (0x49A70BB7ADB5C5938E555D5C6366994D)
Complete name                            : F:\Video\Films\The Cloverfield Paradox (2018) 1080p H.265 [ENG].
Format                                   :
Format version                           : Version 4 / Version 2
File size                                : 5.33 GiB
Duration                                 : 1 h 41 min
Overall bit rate                         : 7 491 kb/s
Movie name                               : The Cloverfield Paradox (2018)
Encoded date                             : UTC 2019-02-04 15:49:52
Writing application                      : v20.0.0 ('I Am The Sun') 64-bit
Writing library                          : libebml v1.3.5 + v1.4.8
Cover                                    : Yes
Attachments                              : cover.jpg

Video
ID                                       : 1
Format                                   : HEVC
Format/Info                              : High Efficiency Video Coding
Format profile                           : Main [email protected]@High
Codec ID                                 : V_MPEGH/ISO/HEVC
Duration                                 : 1 h 41 min
Bit rate                                 : 6 849 kb/s
Width                                    : 1 920 pixels
Height                                   : 800 pixels
Display aspect ratio                     : 2.40:1
Frame rate mode                          : Constant
Frame rate                               : 23.976 (24000/1001) FPS
Color space                              : YUV
Chroma subsampling                       : 4:2:0
Bit depth                                : 10 bits
Bits/(Pixel*Frame)                       : 0.186
Stream size                              : 4.87 GiB (91%)
Title                                    : The Cloverfield Paradox (2018)
Writing library                          : x265 3.0+1-ed72af837053:[Windows][GCC 8.2.0][64 bit] 10bit
Encoding settings                        : cpuid=1111039 / frame-threads=4 / numa-pools=14,14 / wpp / pmode / no-pme / no-psnr / no-ssim / log-level=2 / input-csp=1 / input-res=1920x800 / interlace=0 / total-frames=146468 / level-idc=41 / high-tier=1 / uhd-bd=0 / ref=3 / no-allow-non-conformance / no-repeat-headers / annexb / no-aud / no-hrd / info / hash=0 / no-temporal-layers / open-gop / min-keyint=23 / keyint=240 / gop-lookahead=0 / bframes=4 / b-adapt=2 / b-pyramid / bframe-bias=0 / rc-lookahead=20 / lookahead-slices=5 / scenecut=40 / radl=0 / no-splice / no-intra-refresh / ctu=32 / min-cu-size=8 / no-rect / no-amp / max-tu-size=32 / tu-inter-depth=1 / tu-intra-depth=1 / limit-tu=0 / rdoq-level=0 / dynamic-rd=0.00 / no-ssim-rd / signhide / no-tskip / nr-intra=0 / nr-inter=0 / no-constrained-intra / no-strong-intra-smoothing / max-merge=2 / limit-refs=0 / no-limit-modes / me=2 / subme=5 / merange=32 / temporal-mvp / weightp / no-weightb / no-analyze-src-pics / deblock=-3:-3 / no-sao / no-sao-non-deblock / rd=3 / no-early-skip / rskip / no-fast-intra / no-tskip-fast / no-cu-lossless / no-b-intra / no-splitrd-skip / rdpenalty=0 / psy-rd=2.00 / psy-rdoq=0.00 / no-rd-refine / no-lossless / cbqpoffs=0 / crqpoffs=0 / rc=crf / crf=18.0 / qcomp=0.60 / qpstep=4 / stats-write=0 / stats-read=0 / vbv-maxrate=50000 / vbv-bufsize=50000 / vbv-init=0.9 / crf-max=0.0 / crf-min=0.0 / ipratio=1.40 / pbratio=1.30 / aq-mode=3 / aq-strength=0.95 / cutree / zone-count=0 / no-strict-cbr / qg-size=32 / no-rc-grain / qpmax=69 / qpmin=0 / no-const-vbv / sar=0 / overscan=0 / videoformat=5 / range=0 / colorprim=1 / transfer=1 / colormatrix=1 / chromaloc=0 / display-window=0 / max-cll=0,0 / min-luma=0 / max-luma=1023 / log2-max-poc-lsb=8 / vui-timing-info / vui-hrd-info / slices=1 / no-opt-qp-pps / no-opt-ref-list-length-pps / no-multi-pass-opt-rps / scenecut-bias=0.05 / no-opt-cu-delta-qp / no-aq-motion / no-hdr / no-hdr-opt / no-dhdr10-opt / no-idr-recovery-sei / analysis-reuse-level=5 / scale-factor=0 / refine-intra=0 / refine-inter=0 / refine-mv=0 / refine-ctu-distortion=0 / no-limit-sao / ctu-info=0 / no-lowpass-dct / refine-analysis-type=0 / copy-pic=1 / max-ausize-factor=1.0 / no-dynamic-refine / no-single-sei / no-hevc-aq / qp-adaptation-range=1.00
Language                                 : English
Default                                  : Yes
Forced                                   : No
Color range                              : Limited
Color primaries                          : BT.709
Transfer characteristics                 : BT.709
Matrix coefficients                      : BT.709

Audio
ID                                       : 2
Format                                   : AC-3
Format/Info                              : Audio Coding 3
Codec ID                                 : A_AC3
Duration                                 : 1 h 41 min
Bit rate mode                            : Constant
Bit rate                                 : 640 kb/s
Channel(s)                               : 6 channels
Channel positions                        : Front: L C R, Side: L R, LFE
Sampling rate                            : 48.0 kHz
Frame rate                               : 31.250 FPS (1536 SPF)
Bit depth                                : 16 bits
Compression mode                         : Lossy
Delay relative to video                  : 7 ms
Stream size                              : 466 MiB (9%)
Title                                    : Original
Language                                 : English
Service kind                             : Complete Main
Default                                  : Yes
Forced                                   : Yes

Text #1
ID                                       : 3
Format                                   : UTF-8
Codec ID                                 : S_TEXT/UTF8
Codec ID/Info                            : UTF-8 Plain Text
Duration                                 : 1 h 35 min
Bit rate                                 : 75 b/s
Count of elements                        : 1139
Stream size                              : 53.0 KiB (0%)
Title                                    : Full
Language                                 : Ukrainian
Default                                  : Yes
Forced                                   : No

Text #2
ID                                       : 4
Format                                   : UTF-8
Codec ID                                 : S_TEXT/UTF8
Codec ID/Info                            : UTF-8 Plain Text
Duration                                 : 47 min 40 s
Bit rate                                 : 3 b/s
Count of elements                        : 42
Stream size                              : 1.24 KiB (0%)
Title                                    : Forced
Language                                 : English
Default                                  : No
Forced                                   : No

Text #3
ID                                       : 5
Format                                   : UTF-8
Codec ID                                 : S_TEXT/UTF8
Codec ID/Info                            : UTF-8 Plain Text
Duration                                 : 1 h 36 min
Bit rate                                 : 56 b/s
Count of elements                        : 1436
Stream size                              : 40.1 KiB (0%)
Title                                    : SDH
Language                                 : English
Default                                  : No
Forced                                   : No

Menu
00:00:00.000                             : :Chapter 01
00:07:12.974                             : :Chapter 02
00:11:27.561                             : :Chapter 03
00:16:43.252                             : :Chapter 04
00:22:24.426                             : :Chapter 05
00:30:01.841                             : :Chapter 06
00:34:28.649                             : :Chapter 07
00:38:57.918                             : :Chapter 08
00:45:57.004                             : :Chapter 09
00:50:46.918                             : :Chapter 10
00:55:23.778                             : :Chapter 11
01:04:00.503                             : :Chapter 12
01:10:28.432                             : :Chapter 13
01:19:29.973                             : :Chapter 14
01:25:49.978                             : :Chapter 15
01:32:21.160                             : :Chapter 16
01:36:26.113                             : :Chapter 17
Світлини






Джерело: &
Особиста оцінка: 7 - моїй подрузі не сподобалося


Золотий реліз (завантажене не впливає на рейтинг)
 Трекер:    Зареєстрований   

Завантажити / скачати фільм українською



відео для новачків



 Зареєстрований:   2019-02-04 19:07
 Розмір:   5.33 GB 
 Оцінка фільму:   9.8/10 (Голосів: 8)
   
Інші релізи
overlooked 
Новенький


З нами з: 29.07.08
Востаннє: 20.08.19
Повідомлень: 3

2019-02-04 21:48  
Хтось у курсі?
Чи планується українська озвучка?

messer3 
Новенький


З нами з: 06.09.10
Востаннє: 24.07.19
Повідомлень: 17

2019-02-05 17:26  
цікава наукова фантастика, раджу особливо поціновувачам всесвіту Кловерфілда
подорожній 
Свій


З нами з: 20.06.15
Востаннє: 06.08.19
Повідомлень: 129

2019-02-06 19:04  
Цитата:
Увага! Перед завантаженням переконайтесь, що ваш пристрій відтворення (та/або ПЗ) підтримує H.265 (HEVC)

а ось зараз і спробую!

Anonymous 







2019-02-06 22:39  
подорожній
Відтворилось?)

подорожній 
Свій


З нами з: 20.06.15
Востаннє: 06.08.19
Повідомлень: 129

2019-02-15 20:02  
Поки що очікую на це:
overlooked написано:
Чи планується українська озвучка?

Ваш часовий пояс: GMT + 2 Години

Нова тема   Відповісти