Король Лев. Трилогія / The Lion King. Trilogy (1994-1998-2004) 1080p H.265 Ukr/Eng | Sub Ukr/Eng

Нові коментарі

Нова тема   Відповісти
Автор Повідомлення
Anonymous 







2019-02-04 17:04  
Король Лев. Трилогія / The Lion King. Trilogy (1994-1998-2004) 1080p H.265 Ukr/Eng | Sub Ukr/Eng

Король Лев. Трилогія / The Lion King. Trilogy (1994-1998-2004) 1080p H.265 Ukr/Eng | Sub Ukr/Eng

1. 2. 3.

Жанр: анімація, пригодницький, драма
Країна: США, Австралія
Кінокомпанія: Disney Television Animation

1. Король Лев / The Lion King (1994) 1080p H.265 Ukr/Eng | Sub Ukr/Eng
Король Лев / The Lion King (1994) 1080p H.265 Ukr/Eng | Sub Ukr/Eng

Король Лев. Трилогія / The Lion King. Trilogy (1994-1998-2004) 1080p H.265 Ukr/Eng | Sub Ukr/Eng


Жанр: анімація, пригодницький, казка, комедія, сімейний
Країна: США
Кінокомпанія: Walt Disney Pictures
Режисер: Роджер Аллерс / Roger Allers, Роб Мінкоф / Rob Minkoff
Актори: Метью Бродерік / Matthew Broderick, Нікета Калам / Niketa Calame, Джим Каммінгс / Jim Cummings, Джеймс Ерл Джонс / James Earl Jones, Натан Лейн / Nathan Lane, Ерні Сабелла / Ernie Sabella, Джеремі Айронс / Jeremy Irons, Роберт Джилліам / Robert Guillaume, Ровен Аткінсон / Rowan Atkinson, Мойра Келлі / Moira Kelly, Вупі Голдберг / Whoopi Goldberg, Чіч Марін / Cheech Marin

Сюжет:
У величного Короля-Лева Муфаси народжується спадкоємець на ім'я Сімба. Вже в дитинстві допитливе маля стає жертвою інтриг свого дядька Шрама, який мріє про владу. Сімба пізнає горе втрати, зраду і вигнання, але врешті-решт знаходить вірних друзів і кохану. Загартований випробуваннями, він в нелегкій боротьбі відвойовує своє законне місце в "Колі життя", усвідомивши, що означає бути справжнім Королем.

Тривалість: 01:28:23
Якість:
Відео:
кодек: H.265 (HEVC)
розмір кадру: 1920 x 1080
бітрейт: 4 194 кб/с
частота кадрів: 23.976 fps
біт піксель: 0.084 BPP
бітова глибина: 10 біт
Увага! Перед завантаженням переконайтесь, що ваш пристрій відтворення (та/або ПЗ) підтримує H.265 (HEVC)

Аудіо # 1:
мова: українська
переклад: професійний дубльований
кодек: AC-3 5.1
бітрейт: 640 кб/с

Аудіо # 2:
мова: англійська
переклад: оригінал
кодек: 5.1
бітрейт: 1510 кб/с

Субтитри # 1:
мова: українська (Full),
тип: програмні (м'які)
формат: *.srt

Субтитри # 2:
мова: англійська (Forced),
тип: програмні (м'які)
формат: *.srt

Субтитри # 3:
мова: англійська (Full),
тип: програмні (м'які)
формат: *.srt

Субтитри # 4:
мова: англійська (SDH),
тип: програмні (м'які)
формат: *.srt


Info
Код:
General
Unique ID                                : 51375067164621706780217668989280277088 (0x26A67A5FD410B8DBC403CB75C79B5260)
Complete name                            : F:\Video\Mult\The Lion King. Trilogy (1994-2004) 1080p H.265 [UKR_ENG]\1. The Lion King (1994) 1080p H.265 [UKR_ENG].
Format                                   :
Format version                           : Version 4 / Version 2
File size                                : 3.92 GiB
Duration                                 : 1 h 28 min
Overall bit rate                         : 6 351 kb/s
Movie name                               : The Lion King (1994)
Encoded date                             : UTC 2019-02-04 12:14:11
Writing application                      : v20.0.0 ('I Am The Sun') 64-bit
Writing library                          : libebml v1.3.5 + v1.4.8
Cover                                    : Yes
Attachments                              : cover.jpg

Video
ID                                       : 1
Format                                   : HEVC
Format/Info                              : High Efficiency Video Coding
Format profile                           : Main [email protected]@High
Codec ID                                 : V_MPEGH/ISO/HEVC
Duration                                 : 1 h 28 min
Bit rate                                 : 4 194 kb/s
Width                                    : 1 920 pixels
Height                                   : 1 080 pixels
Display aspect ratio                     : 16:9
Frame rate mode                          : Constant
Frame rate                               : 23.976 (23976/1000) FPS
Original frame rate                      : 23.976 (24000/1001) FPS
Color space                              : YUV
Chroma subsampling                       : 4:2:0
Bit depth                                : 10 bits
Bits/(Pixel*Frame)                       : 0.084
Stream size                              : 2.59 GiB (66%)
Title                                    : The Lion King (1994)
Writing library                          : x265 2.8+74-fd517ae68f93:[Windows][MSVC 1915][64 bit] 10bit
Encoding settings                        : cpuid=1111039 / frame-threads=13 / numa-pools=12 / wpp / no-pmode / no-pme / no-psnr / no-ssim / log-level=2 / input-csp=1 / input-res=1920x1080 / interlace=0 / total-frames=43212 / level-idc=41 / high-tier=1 / uhd-bd=0 / ref=5 / no-allow-non-conformance / no-repeat-headers / annexb / no-aud / no-hrd / info / hash=0 / no-temporal-layers / open-gop / min-keyint=23 / keyint=240 / gop-lookahead=0 / bframes=10 / b-adapt=2 / b-pyramid / bframe-bias=0 / rc-lookahead=60 / lookahead-slices=4 / scenecut=40 / radl=0 / no-intra-refresh / ctu=32 / min-cu-size=8 / rect / amp / max-tu-size=32 / tu-inter-depth=4 / tu-intra-depth=4 / limit-tu=1 / rdoq-level=2 / dynamic-rd=0.00 / no-ssim-rd / signhide / no-tskip / nr-intra=0 / nr-inter=0 / no-constrained-intra / no-strong-intra-smoothing / max-merge=4 / limit-refs=2 / limit-modes / me=3 / subme=7 / merange=57 / temporal-mvp / weightp / weightb / no-analyze-src-pics / deblock=-3:-3 / no-sao / no-sao-non-deblock / rd=6 / no-early-skip / no-rskip / no-fast-intra / no-tskip-fast / no-cu-lossless / no-b-intra / no-splitrd-skip / rdpenalty=0 / psy-rd=2.00 / psy-rdoq=1.00 / no-rd-refine / no-lossless / cbqpoffs=0 / crqpoffs=0 / rc=crf / crf=20.0 / qcomp=0.60 / qpstep=4 / stats-write=0 / stats-read=0 / vbv-maxrate=50000 / vbv-bufsize=50000 / vbv-init=0.9 / crf-max=0.0 / crf-min=0.0 / ipratio=1.40 / pbratio=1.30 / aq-mode=1 / aq-strength=0.90 / no-cutree / zone-count=0 / no-strict-cbr / qg-size=32 / no-rc-grain / qpmax=69 / qpmin=0 / no-const-vbv / sar=1 / overscan=0 / videoformat=5 / range=0 / colorprim=2 / transfer=2 / colormatrix=2 / chromaloc=0 / display-window=0 / max-cll=0,0 / min-luma=0 / max-luma=1023 / log2-max-poc-lsb=8 / vui-timing-info / vui-hrd-info / slices=1 / no-opt-qp-pps / no-opt-ref-list-length-pps / no-multi-pass-opt-rps / scenecut-bias=0.05 / no-opt-cu-delta-qp / no-aq-motion / no-hdr / no-hdr-opt / no-dhdr10-opt / no-idr-recovery-sei / analysis-reuse-level=5 / scale-factor=0 / refine-intra=0 / refine-inter=0 / refine-mv=0 / no-limit-sao / ctu-info=0 / no-lowpass-dct / refine-mv-type=0 / copy-pic=1 / max-ausize-factor=1.0 / no-dynamic-refine / no-single-sei
Default                                  : Yes
Forced                                   : No

Audio #1
ID                                       : 2
Format                                   : AC-3
Format/Info                              : Audio Coding 3
Codec ID                                 : A_AC3
Duration                                 : 1 h 28 min
Bit rate mode                            : Constant
Bit rate                                 : 640 kb/s
Channel(s)                               : 6 channels
Channel positions                        : Front: L C R, Side: L R, LFE
Sampling rate                            : 48.0 kHz
Frame rate                               : 31.250 FPS (1536 SPF)
Bit depth                                : 16 bits
Compression mode                         : Lossy
Stream size                              : 405 MiB (10%)
Title                                    : ПД - Blu-Ray
Language                                 : Ukrainian
Service kind                             : Complete Main
Default                                  : Yes
Forced                                   : Yes

Audio #2
ID                                       : 3
Format                                   :
Format/Info                              : Digital Theater Systems
Codec ID                                 : A_DTS
Duration                                 : 1 h 28 min
Bit rate mode                            : Constant
Bit rate                                 : 1 509 kb/s
Channel(s)                               : 6 channels
Channel positions                        : Front: L C R, Side: L R, LFE
Sampling rate                            : 48.0 kHz
Frame rate                               : 93.750 FPS (512 SPF)
Bit depth                                : 24 bits
Compression mode                         : Lossy
Stream size                              : 954 MiB (24%)
Title                                    : Original
Language                                 : English
Default                                  : No
Forced                                   : No

Text #1
ID                                       : 4
Format                                   : UTF-8
Codec ID                                 : S_TEXT/UTF8
Codec ID/Info                            : UTF-8 Plain Text
Duration                                 : 1 h 26 min
Bit rate                                 : 83 b/s
Count of elements                        : 1128
Stream size                              : 52.9 KiB (0%)
Title                                    : Full
Language                                 : Ukrainian
Default                                  : Yes
Forced                                   : No

Text #2
ID                                       : 5
Format                                   : UTF-8
Codec ID                                 : S_TEXT/UTF8
Codec ID/Info                            : UTF-8 Plain Text
Duration                                 : 1 h 22 min
Bit rate                                 : 9 b/s
Count of elements                        : 238
Stream size                              : 5.82 KiB (0%)
Title                                    : Forced
Language                                 : English
Default                                  : No
Forced                                   : No

Text #3
ID                                       : 6
Format                                   : UTF-8
Codec ID                                 : S_TEXT/UTF8
Codec ID/Info                            : UTF-8 Plain Text
Duration                                 : 1 h 22 min
Bit rate                                 : 56 b/s
Count of elements                        : 1161
Stream size                              : 33.9 KiB (0%)
Title                                    : Full
Language                                 : English
Default                                  : No
Forced                                   : No

Text #4
ID                                       : 7
Format                                   : UTF-8
Codec ID                                 : S_TEXT/UTF8
Codec ID/Info                            : UTF-8 Plain Text
Duration                                 : 1 h 27 min
Bit rate                                 : 57 b/s
Count of elements                        : 1315
Stream size                              : 37.0 KiB (0%)
Title                                    : SDH
Language                                 : English
Default                                  : No
Forced                                   : No

Menu #1
00:00:00.000                             : en:Circle of Life
00:04:40.071                             : en:Scar
00:08:10.407                             : en:Father and Son/"Morning Report"
00:11:28.980                             : en:Uncle Scar
00:14:09.557                             : en:"I Just Can't Wait to be King"
00:17:51.028                             : en:Elephant Graveyard
00:22:54.748                             : en:Under the Stars
00:25:36.118                             : en:"Be Prepared"
00:30:24.197                             : en:Stampede
00:35:52.150                             : en:The King is Dead
00:40:14.078                             : en:Scar Takes Over
00:41:14.430                             : en:Timon and Pumbaa
00:44:16.946                             : en:"Hakuna Matata"
00:48:20.564                             : en:Scar in Command
00:50:07.213                             : en:Pumbaa and Timon Wax Philosophical
00:53:14.775                             : en:Nala and Simba Reunite
00:57:50.842                             : en:"Can You Feel the Love Tonight"
01:00:56.570                             : en:Trouble in Paradise
01:02:32.332                             : en:He Lives in You
01:08:49.625                             : en:Simba Returns
01:12:41.023                             : en:Simba Confronts Scar
01:16:42.306                             : en:The Fight
01:20:45.132                             : en:Simba Ascends
01:23:23.874                             : en:End Credits

Menu #2
00:00:00.097                             : en:00:00:00.097
Світлини



2. Король Лев ІІ: гордість Сімби / The Lion King II: Simba's Pride (1998) 1080p H.265 Ukr/Eng | Sub Ukr/Eng
Король Лев ІІ: гордість Сімби / The Lion King II: Simba's Pride (1998) 1080p H.265 Ukr/Eng | Sub Ukr/Eng

Король Лев. Трилогія / The Lion King. Trilogy (1994-1998-2004) 1080p H.265 Ukr/Eng | Sub Ukr/Eng


Жанр: анімація, пригодницький, казка, комедія, сімейний
Країна: США
Кінокомпанія: Walt Disney Pictures
Режисер: Дарел Руні, Роб ЛаДука
Актори: Метью Бродерік, Нів Кемпбел, Джеймс Ерл Джонс, Натан Лейн та інші

Сюжет:
Пригоди доньки Сімби - кмітливої Кіари.

Тривалість: 01:20:49
Якість:
Відео:
кодек: H.265 (HEVC)
розмір кадру: 1920 x 1080
бітрейт: 4 644 кб/с
частота кадрів: 23.976 fps
біт піксель: 0.093 BPP
бітова глибина: 10 біт
Увага! Перед завантаженням переконайтесь, що ваш пристрій відтворення (та/або ПЗ) підтримує H.265 (HEVC)

Аудіо # 1:
мова: українська
переклад: професійний дубльований | LeDoyen Studio
кодек: AC-3 2.0
бітрейт: 192 кб/с

Аудіо # 2:
мова: англійська
переклад: оригінал
кодек: AC-3 5.1
бітрейт: 640 кб/с

Субтитри # 1:
мова: українська (Full),
тип: програмні (м'які)
формат: *.srt

Субтитри # 2:
мова: англійська (Full),
тип: програмні (м'які)
формат: *.srt


Info
Код:
General
Unique ID                                : 251589139515614733456039088514668725681 (0xBD464E45791755EB8F38F3B63FE085B1)
Complete name                            : F:\Video\Mult\The Lion King. Trilogy (1994-2004) 1080p H.265 [UKR_ENG]\2. The Lion King II Simba s Pride (1998) 1080p H.265 [UKR_ENG].
Format                                   :
Format version                           : Version 4 / Version 2
File size                                : 3.09 GiB
Duration                                 : 1 h 20 min
Overall bit rate                         : 5 479 kb/s
Movie name                               : The Lion King II: Simba's Pride (1998)
Encoded date                             : UTC 2019-02-03 19:15:54
Writing application                      : v20.0.0 ('I Am The Sun') 64-bit
Writing library                          : libebml v1.3.5 + v1.4.8
Cover                                    : Yes
Attachments                              : cover.jpg

Video
ID                                       : 1
Format                                   : HEVC
Format/Info                              : High Efficiency Video Coding
Format profile                           : Main [email protected]@High
Codec ID                                 : V_MPEGH/ISO/HEVC
Duration                                 : 1 h 20 min
Bit rate                                 : 4 644 kb/s
Width                                    : 1 920 pixels
Height                                   : 1 080 pixels
Display aspect ratio                     : 16:9
Frame rate mode                          : Constant
Frame rate                               : 23.976 (23976/1000) FPS
Original frame rate                      : 23.976 (24000/1001) FPS
Color space                              : YUV
Chroma subsampling                       : 4:2:0
Bit depth                                : 10 bits
Bits/(Pixel*Frame)                       : 0.093
Stream size                              : 2.62 GiB (85%)
Title                                    : The Lion King II: Simba's Pride (1998)
Writing library                          : x265 2.8+74-fd517ae68f93:[Windows][MSVC 1915][64 bit] 10bit
Encoding settings                        : cpuid=1111039 / frame-threads=13 / numa-pools=12 / wpp / no-pmode / no-pme / no-psnr / no-ssim / log-level=2 / input-csp=1 / input-res=1920x1080 / interlace=0 / total-frames=28816 / level-idc=41 / high-tier=1 / uhd-bd=0 / ref=5 / no-allow-non-conformance / no-repeat-headers / annexb / no-aud / no-hrd / info / hash=0 / no-temporal-layers / open-gop / min-keyint=23 / keyint=240 / gop-lookahead=0 / bframes=12 / b-adapt=2 / b-pyramid / bframe-bias=0 / rc-lookahead=60 / lookahead-slices=4 / scenecut=40 / radl=0 / no-intra-refresh / ctu=32 / min-cu-size=8 / rect / amp / max-tu-size=32 / tu-inter-depth=4 / tu-intra-depth=4 / limit-tu=1 / rdoq-level=2 / dynamic-rd=0.00 / no-ssim-rd / signhide / no-tskip / nr-intra=0 / nr-inter=0 / no-constrained-intra / no-strong-intra-smoothing / max-merge=4 / limit-refs=2 / limit-modes / me=3 / subme=7 / merange=57 / temporal-mvp / weightp / weightb / no-analyze-src-pics / deblock=-3:-3 / no-sao / no-sao-non-deblock / rd=6 / no-early-skip / no-rskip / no-fast-intra / no-tskip-fast / no-cu-lossless / no-b-intra / no-splitrd-skip / rdpenalty=0 / psy-rd=2.00 / psy-rdoq=1.00 / no-rd-refine / no-lossless / cbqpoffs=0 / crqpoffs=0 / rc=crf / crf=20.0 / qcomp=0.60 / qpstep=4 / stats-write=0 / stats-read=0 / vbv-maxrate=50000 / vbv-bufsize=50000 / vbv-init=0.9 / crf-max=0.0 / crf-min=0.0 / ipratio=1.40 / pbratio=1.30 / aq-mode=1 / aq-strength=0.90 / no-cutree / zone-count=0 / no-strict-cbr / qg-size=32 / no-rc-grain / qpmax=69 / qpmin=0 / no-const-vbv / sar=1 / overscan=0 / videoformat=5 / range=0 / colorprim=2 / transfer=2 / colormatrix=2 / chromaloc=0 / display-window=0 / max-cll=0,0 / min-luma=0 / max-luma=1023 / log2-max-poc-lsb=8 / vui-timing-info / vui-hrd-info / slices=1 / no-opt-qp-pps / no-opt-ref-list-length-pps / no-multi-pass-opt-rps / scenecut-bias=0.05 / no-opt-cu-delta-qp / no-aq-motion / no-hdr / no-hdr-opt / no-dhdr10-opt / no-idr-recovery-sei / analysis-reuse-level=5 / scale-factor=0 / refine-intra=0 / refine-inter=0 / refine-mv=0 / no-limit-sao / ctu-info=0 / no-lowpass-dct / refine-mv-type=0 / copy-pic=1 / max-ausize-factor=1.0 / no-dynamic-refine / no-single-sei
Default                                  : Yes
Forced                                   : No

Audio #1
ID                                       : 2
Format                                   : AC-3
Format/Info                              : Audio Coding 3
Codec ID                                 : A_AC3
Duration                                 : 1 h 20 min
Bit rate mode                            : Constant
Bit rate                                 : 192 kb/s
Channel(s)                               : 2 channels
Channel positions                        : Front: L R
Sampling rate                            : 48.0 kHz
Frame rate                               : 31.250 FPS (1536 SPF)
Bit depth                                : 16 bits
Compression mode                         : Lossy
Stream size                              : 111 MiB (4%)
Title                                    : ПД - LeDoyen Studio
Language                                 : Ukrainian
Service kind                             : Complete Main
Default                                  : Yes
Forced                                   : Yes

Audio #2
ID                                       : 3
Format                                   : AC-3
Format/Info                              : Audio Coding 3
Codec ID                                 : A_AC3
Duration                                 : 1 h 20 min
Bit rate mode                            : Constant
Bit rate                                 : 640 kb/s
Channel(s)                               : 6 channels
Channel positions                        : Front: L C R, Side: L R, LFE
Sampling rate                            : 48.0 kHz
Frame rate                               : 31.250 FPS (1536 SPF)
Bit depth                                : 16 bits
Compression mode                         : Lossy
Stream size                              : 370 MiB (12%)
Title                                    : Original
Language                                 : English
Service kind                             : Complete Main
Default                                  : No
Forced                                   : No

Text #1
ID                                       : 4
Format                                   : UTF-8
Codec ID                                 : S_TEXT/UTF8
Codec ID/Info                            : UTF-8 Plain Text
Duration                                 : 1 h 14 min
Bit rate                                 : 69 b/s
Count of elements                        : 872
Stream size                              : 38.2 KiB (0%)
Title                                    : Full
Language                                 : Ukrainian
Default                                  : No
Forced                                   : No

Text #2
ID                                       : 5
Format                                   : UTF-8
Codec ID                                 : S_TEXT/UTF8
Codec ID/Info                            : UTF-8 Plain Text
Duration                                 : 1 h 14 min
Bit rate                                 : 44 b/s
Count of elements                        : 870
Stream size                              : 24.6 KiB (0%)
Title                                    : Full
Language                                 : English
Default                                  : No
Forced                                   : No

Menu
00:00:00.000                             : :Chapter 01
00:03:33.129                             : :Chapter 02
00:05:39.005                             : :Chapter 03
00:09:16.054                             : :Chapter 04
00:14:21.068                             : :Chapter 05
00:19:09.690                             : :Chapter 06
00:21:48.181                             : :Chapter 07
00:26:53.902                             : :Chapter 08
00:31:02.944                             : :Chapter 09
00:33:00.478                             : :Chapter 10
00:39:56.268                             : :Chapter 11
00:44:47.101                             : :Chapter 12
00:45:40.446                             : :Chapter 13
00:50:37.951                             : :Chapter 14
00:56:15.830                             : :Chapter 15
00:59:51.546                             : :Chapter 16
01:01:24.389                             : :Chapter 17
01:05:01.439                             : :Chapter 18
01:12:54.119                             : :Chapter 19
01:15:20.515                             : :Chapter 20
01:20:49.594                             : :Chapter 21
Світлини



3. Король Лев 1½ / The Lion King 1½ (2004) 1080p H.265 Ukr/Eng | Sub Ukr/Eng
Король Лев 1½ / The Lion King 1½ (2004) 1080p H.265 Ukr/Eng | Sub Ukr/Eng

Король Лев. Трилогія / The Lion King. Trilogy (1994-1998-2004) 1080p H.265 Ukr/Eng | Sub Ukr/Eng


Жанр: анімація, пригодницький, казка, комедія, сімейний
Країна: США
Кінокомпанія: Disney Television Animation
Режисер: Бредлі Реймонд
Актори: Метью Бродерік, Натан Лейн, Джері Стілер та інші

Сюжет:
Історія про знайомство Тімона та Пумби.

Тривалість: 01:16:14
Якість:
Відео:
кодек: H.265 (HEVC)
розмір кадру: 1824 x 1080
бітрейт: 3 689 кб/с
частота кадрів: 23.976 fps
біт піксель: 0.078 BPP
бітова глибина: 10 біт
Увага! Перед завантаженням переконайтесь, що ваш пристрій відтворення (та/або ПЗ) підтримує H.265 (HEVC)

Аудіо # 1:
мова: українська
переклад: професійний дубльований | LeDoyen Studio
кодек: AC-3 2.0
бітрейт: 192 кб/с

Аудіо # 2:
мова: англійська
переклад: оригінал
кодек: AC-3 5.1
бітрейт: 640 кб/с

Субтитри # 1:
мова: українська (Full),
тип: програмні (м'які)
формат: *.srt

Субтитри # 2:
мова: англійська (Full),
тип: програмні (м'які)
формат: *.srt


Info
Код:
General
Unique ID                                : 268874149833593274587847398116869122213 (0xCA474713A6F23A9C58B542AE2DDDA8A5)
Complete name                            : F:\Video\Mult\The Lion King. Trilogy (1994-2004) 1080p H.265 [UKR_ENG]\3. The Lion King 1½ (2004) 1080p H.265 [UKR_ENG].
Format                                   :
Format version                           : Version 4 / Version 2
File size                                : 2.41 GiB
Duration                                 : 1 h 16 min
Overall bit rate                         : 4 524 kb/s
Movie name                               : The Lion King 1½ (2004)
Encoded date                             : UTC 2019-02-03 19:22:24
Writing application                      : v20.0.0 ('I Am The Sun') 64-bit
Writing library                          : libebml v1.3.5 + v1.4.8
Cover                                    : Yes
Attachments                              : cover.jpg

Video
ID                                       : 1
Format                                   : HEVC
Format/Info                              : High Efficiency Video Coding
Format profile                           : Main [email protected]@High
Codec ID                                 : V_MPEGH/ISO/HEVC
Duration                                 : 1 h 16 min
Bit rate                                 : 3 689 kb/s
Width                                    : 1 824 pixels
Height                                   : 1 080 pixels
Display aspect ratio                     : 5:3
Frame rate mode                          : Constant
Frame rate                               : 23.976 (23976/1000) FPS
Original frame rate                      : 23.976 (24000/1001) FPS
Color space                              : YUV
Chroma subsampling                       : 4:2:0
Bit depth                                : 10 bits
Bits/(Pixel*Frame)                       : 0.078
Stream size                              : 1.96 GiB (82%)
Title                                    : The Lion King 1½ (2004)
Writing library                          : x265 2.8+74-fd517ae68f93:[Windows][MSVC 1915][64 bit] 10bit
Encoding settings                        : cpuid=1111039 / frame-threads=13 / numa-pools=12 / wpp / no-pmode / no-pme / no-psnr / no-ssim / log-level=2 / input-csp=1 / input-res=1824x1080 / interlace=0 / total-frames=43179 / level-idc=41 / high-tier=1 / uhd-bd=0 / ref=5 / no-allow-non-conformance / no-repeat-headers / annexb / no-aud / no-hrd / info / hash=0 / no-temporal-layers / open-gop / min-keyint=23 / keyint=240 / gop-lookahead=0 / bframes=12 / b-adapt=2 / b-pyramid / bframe-bias=0 / rc-lookahead=60 / lookahead-slices=4 / scenecut=40 / radl=0 / no-intra-refresh / ctu=32 / min-cu-size=8 / rect / amp / max-tu-size=32 / tu-inter-depth=4 / tu-intra-depth=4 / limit-tu=1 / rdoq-level=2 / dynamic-rd=0.00 / no-ssim-rd / signhide / no-tskip / nr-intra=0 / nr-inter=0 / no-constrained-intra / no-strong-intra-smoothing / max-merge=4 / limit-refs=2 / limit-modes / me=3 / subme=7 / merange=57 / temporal-mvp / weightp / weightb / no-analyze-src-pics / deblock=-3:-3 / no-sao / no-sao-non-deblock / rd=6 / no-early-skip / no-rskip / no-fast-intra / no-tskip-fast / no-cu-lossless / no-b-intra / no-splitrd-skip / rdpenalty=0 / psy-rd=2.00 / psy-rdoq=1.00 / no-rd-refine / no-lossless / cbqpoffs=0 / crqpoffs=0 / rc=crf / crf=20.0 / qcomp=0.60 / qpstep=4 / stats-write=0 / stats-read=0 / vbv-maxrate=50000 / vbv-bufsize=50000 / vbv-init=0.9 / crf-max=0.0 / crf-min=0.0 / ipratio=1.40 / pbratio=1.30 / aq-mode=1 / aq-strength=0.90 / no-cutree / zone-count=0 / no-strict-cbr / qg-size=32 / no-rc-grain / qpmax=69 / qpmin=0 / no-const-vbv / sar=1 / overscan=0 / videoformat=5 / range=0 / colorprim=2 / transfer=2 / colormatrix=2 / chromaloc=0 / display-window=0 / max-cll=0,0 / min-luma=0 / max-luma=1023 / log2-max-poc-lsb=8 / vui-timing-info / vui-hrd-info / slices=1 / no-opt-qp-pps / no-opt-ref-list-length-pps / no-multi-pass-opt-rps / scenecut-bias=0.05 / no-opt-cu-delta-qp / no-aq-motion / no-hdr / no-hdr-opt / no-dhdr10-opt / no-idr-recovery-sei / analysis-reuse-level=5 / scale-factor=0 / refine-intra=0 / refine-inter=0 / refine-mv=0 / no-limit-sao / ctu-info=0 / no-lowpass-dct / refine-mv-type=0 / copy-pic=1 / max-ausize-factor=1.0 / no-dynamic-refine / no-single-sei
Default                                  : Yes
Forced                                   : No

Audio #1
ID                                       : 2
Format                                   : AC-3
Format/Info                              : Audio Coding 3
Codec ID                                 : A_AC3
Duration                                 : 1 h 16 min
Bit rate mode                            : Constant
Bit rate                                 : 192 kb/s
Channel(s)                               : 2 channels
Channel positions                        : Front: L R
Sampling rate                            : 48.0 kHz
Frame rate                               : 31.250 FPS (1536 SPF)
Bit depth                                : 16 bits
Compression mode                         : Lossy
Stream size                              : 105 MiB (4%)
Title                                    : ПД - LeDoyen Studio
Language                                 : Ukrainian
Service kind                             : Complete Main
Default                                  : Yes
Forced                                   : Yes

Audio #2
ID                                       : 3
Format                                   : AC-3
Format/Info                              : Audio Coding 3
Codec ID                                 : A_AC3
Duration                                 : 1 h 16 min
Bit rate mode                            : Constant
Bit rate                                 : 640 kb/s
Channel(s)                               : 6 channels
Channel positions                        : Front: L C R, Side: L R, LFE
Sampling rate                            : 48.0 kHz
Frame rate                               : 31.250 FPS (1536 SPF)
Bit depth                                : 16 bits
Compression mode                         : Lossy
Stream size                              : 349 MiB (14%)
Title                                    : Original
Language                                 : English
Service kind                             : Complete Main
Default                                  : No
Forced                                   : No

Text #1
ID                                       : 4
Format                                   : UTF-8
Codec ID                                 : S_TEXT/UTF8
Codec ID/Info                            : UTF-8 Plain Text
Duration                                 : 1 h 9 min
Bit rate                                 : 75 b/s
Count of elements                        : 797
Stream size                              : 38.5 KiB (0%)
Title                                    : Full
Language                                 : Ukrainian
Default                                  : No
Forced                                   : No

Text #2
ID                                       : 5
Format                                   : UTF-8
Codec ID                                 : S_TEXT/UTF8
Codec ID/Info                            : UTF-8 Plain Text
Duration                                 : 1 h 9 min
Bit rate                                 : 56 b/s
Count of elements                        : 795
Stream size                              : 28.7 KiB (0%)
Title                                    : Full
Language                                 : English
Default                                  : No
Forced                                   : No

Menu
00:00:00.000                             : :Chapter 01
00:01:56.115                             : :Chapter 02
00:08:22.542                             : :Chapter 03
00:12:28.164                             : :Chapter 04
00:17:00.686                             : :Chapter 05
00:22:34.519                             : :Chapter 06
00:29:19.466                             : :Chapter 07
00:34:20.558                             : :Chapter 08
00:38:19.005                             : :Chapter 09
00:40:22.169                             : :Chapter 10
00:45:33.021                             : :Chapter 11
00:50:09.422                             : :Chapter 12
00:54:52.455                             : :Chapter 13
00:59:02.872                             : :Chapter 14
01:06:18.432                             : :Chapter 15
01:10:25.012                             : :Chapter 16
01:16:14.361                             : :Chapter 17
Світлини





Джерело: &
Особиста оцінка: 10 - без зайвих вагань рекомендую всім!


Срібний реліз (на рейтинг впливає 50% завантаженого)
 Трекер:    Зареєстрований   

Завантажити / скачати мультфільм українською



відео для новачків



 Зареєстрований:   2019-02-04 17:04
 Розмір:   9.42 GB 
 Оцінка мультфільму:   10/10 (Голосів: 37)
   
Ваш часовий пояс: GMT + 2 Години

Нова тема   Відповісти