Гра у схованки / Hide and Seek (2005) 1080p H.265 Ukr/Eng | Sub Eng

Нові коментарі

Нова тема   Відповісти
Автор Повідомлення
-Star-Lord- 
VIP


З нами з: 09.08.18
Востаннє: 23.04.19
Повідомлень: 737

2019-02-04 14:46  
Гра у схованки / Hide and Seek (2005) 1080p H.265 Ukr/Eng | Sub Eng
Гра у схованки / Hide and Seek (2005) 1080p H.265 Ukr/Eng | Sub Eng


Жанр: жахи, трилер, детектив
Країна: США
Кінокомпанія: Fox 2000 Pictures, Josephson Entertainment, 20th Century Fox
Режисер: Джон Полсон
Актори: Роберт Де Ніро, Дакота Феннінг, Фамке Янссен, Елізабет Шу, Емі Ірвінг, Ділан Бейкер, Мелісса Лео, Роберт Джон Берк, Моллі Грант Келлінс, Девід Чендлер, Стюарт Саммерс

Сюжет:
Овдовілий герой Де Ніро відчайдушно намагається налагодити стосунки зі своєю дочкою, яка дуже важко переживає втрату. Вона придумує собі уявного друга, проте ця дружба незабаром набуває вельми лякливого характеру, а сам друг стає все більш і більш реальним ...

Тривалість: 01:40:52
Якість:
Відео:
кодек: H.265 (HEVC)
розмір кадру: 1920 x 800
бітрейт: 7 880 кб/с
частота кадрів: 23.976 fps
біт піксель: 0.214 BPP
бітова глибина: 10 біт
Увага! Перед завантаженням переконайтесь, що ваш пристрій відтворення (та/або ПЗ) підтримує H.265 (HEVC)

Аудіо # 1:
мова: українська
переклад: професійний дубльований
кодек: AC-3 5.1
бітрейт: 448 кб/с

Аудіо # 2:
мова: англійська
переклад: оригінал
кодек: AC-3 5.1
бітрейт: 448 кб/с

Субтитри # 1:
мова: українська (Forced),
тип: програмні (м'які)
формат: *.srt
примітка: до моментів без перекладу 01:36:27 - 01:36:32

Субтитри # 2:
мова: англійська (Full),
тип: програмні (м'які)
формат: *.srt


Info
Код:
General
Unique ID                                : 139731616903271747935900651063797759453 (0x691F549CC5E15209CBA33133A65A3DDD)
Complete name                            : F:\Video\Films\Hide and Seek (2005) 1080p H.265 [UKR_ENG].
Format                                   :
Format version                           : Version 4 / Version 2
File size                                : 6.18 GiB
Duration                                 : 1 h 40 min
Overall bit rate                         : 8 776 kb/s
Movie name                               : Hide and Seek (2005)
Encoded date                             : UTC 2019-02-03 16:23:39
Writing application                      : v20.0.0 ('I Am The Sun') 64-bit
Writing library                          : libebml v1.3.5 + v1.4.8
Cover                                    : Yes
Attachments                              : cover.jpg

Video
ID                                       : 1
Format                                   : HEVC
Format/Info                              : High Efficiency Video Coding
Format profile                           : Main [email protected]@High
Codec ID                                 : V_MPEGH/ISO/HEVC
Duration                                 : 1 h 40 min
Bit rate                                 : 7 879 kb/s
Width                                    : 1 920 pixels
Height                                   : 800 pixels
Display aspect ratio                     : 2.40:1
Frame rate mode                          : Constant
Frame rate                               : 23.976 (24000/1001) FPS
Color space                              : YUV
Chroma subsampling                       : 4:2:0
Bit depth                                : 10 bits
Bits/(Pixel*Frame)                       : 0.214
Stream size                              : 5.55 GiB (90%)
Writing library                          : x265 2.9+9-f74003e88622:[Windows][GCC 8.2.0][64 bit] 10bit
Encoding settings                        : cpuid=1049583 / frame-threads=5 / numa-pools=4 / wpp / no-pmode / no-pme / no-psnr / no-ssim / log-level=3 / input-csp=1 / input-res=1920x800 / interlace=0 / total-frames=0 / level-idc=51 / high-tier=1 / uhd-bd=0 / ref=5 / allow-non-conformance / no-repeat-headers / annexb / no-aud / no-hrd / info / hash=0 / no-temporal-layers / open-gop / min-keyint=24 / keyint=240 / gop-lookahead=0 / bframes=8 / b-adapt=2 / b-pyramid / bframe-bias=0 / rc-lookahead=40 / lookahead-slices=5 / scenecut=40 / radl=0 / no-intra-refresh / ctu=64 / min-cu-size=8 / no-rect / no-amp / max-tu-size=32 / tu-inter-depth=1 / tu-intra-depth=1 / limit-tu=0 / rdoq-level=0 / dynamic-rd=0.00 / no-ssim-rd / signhide / no-tskip / nr-intra=0 / nr-inter=0 / no-constrained-intra / no-strong-intra-smoothing / max-merge=2 / limit-refs=3 / no-limit-modes / me=3 / subme=7 / merange=57 / temporal-mvp / weightp / no-weightb / no-analyze-src-pics / deblock=-3:-3 / no-sao / no-sao-non-deblock / rd=3 / no-early-skip / rskip / no-fast-intra / no-tskip-fast / no-cu-lossless / no-b-intra / no-splitrd-skip / rdpenalty=0 / psy-rd=2.00 / psy-rdoq=0.00 / no-rd-refine / no-lossless / cbqpoffs=0 / crqpoffs=0 / rc=crf / crf=18.0 / qcomp=0.60 / qpstep=4 / stats-write=0 / stats-read=0 / vbv-maxrate=50000 / vbv-bufsize=50000 / vbv-init=0.9 / crf-max=0.0 / crf-min=0.0 / ipratio=1.40 / pbratio=1.30 / aq-mode=1 / aq-strength=1.00 / cutree / zone-count=0 / no-strict-cbr / qg-size=32 / no-rc-grain / qpmax=69 / qpmin=0 / no-const-vbv / sar=1 / overscan=0 / videoformat=5 / range=0 / colorprim=1 / transfer=1 / colormatrix=1 / chromaloc=0 / display-window=0 / max-cll=0,0 / min-luma=0 / max-luma=1023 / log2-max-poc-lsb=8 / vui-timing-info / vui-hrd-info / slices=1 / no-opt-qp-pps / no-opt-ref-list-length-pps / no-multi-pass-opt-rps / scenecut-bias=0.05 / no-opt-cu-delta-qp / no-aq-motion / no-hdr / no-hdr-opt / no-dhdr10-opt / no-idr-recovery-sei / analysis-reuse-level=5 / scale-factor=0 / refine-intra=0 / refine-inter=0 / refine-mv=0 / no-limit-sao / ctu-info=0 / no-lowpass-dct / refine-mv-type=0 / copy-pic=1 / max-ausize-factor=1.0 / no-dynamic-refine / no-single-sei
Default                                  : Yes
Forced                                   : No
Color range                              : Limited
Color primaries                          : BT.709
Transfer characteristics                 : BT.709
Matrix coefficients                      : BT.709

Audio #1
ID                                       : 2
Format                                   : AC-3
Format/Info                              : Audio Coding 3
Codec ID                                 : A_AC3
Duration                                 : 1 h 40 min
Bit rate mode                            : Constant
Bit rate                                 : 448 kb/s
Channel(s)                               : 6 channels
Channel positions                        : Front: L C R, Side: L R, LFE
Sampling rate                            : 48.0 kHz
Frame rate                               : 31.250 FPS (1536 SPF)
Bit depth                                : 16 bits
Compression mode                         : Lossy
Stream size                              : 323 MiB (5%)
Title                                    : ПД - 1+1
Language                                 : Ukrainian
Service kind                             : Complete Main
Default                                  : Yes
Forced                                   : Yes

Audio #2
ID                                       : 3
Format                                   : AC-3
Format/Info                              : Audio Coding 3
Codec ID                                 : A_AC3
Duration                                 : 1 h 40 min
Bit rate mode                            : Constant
Bit rate                                 : 448 kb/s
Channel(s)                               : 6 channels
Channel positions                        : Front: L C R, Side: L R, LFE
Sampling rate                            : 48.0 kHz
Frame rate                               : 31.250 FPS (1536 SPF)
Bit depth                                : 16 bits
Compression mode                         : Lossy
Stream size                              : 323 MiB (5%)
Title                                    : Original
Language                                 : English
Service kind                             : Complete Main
Default                                  : No
Forced                                   : No

Text #1
ID                                       : 4
Format                                   : UTF-8
Codec ID                                 : S_TEXT/UTF8
Codec ID/Info                            : UTF-8 Plain Text
Duration                                 : 26 s 434 ms
Bit rate                                 : 42 b/s
Count of elements                        : 3
Stream size                              : 139 Bytes (0%)
Title                                    : Forced
Language                                 : Ukrainian
Default                                  : Yes
Forced                                   : Yes

Text #2
ID                                       : 5
Format                                   : UTF-8
Codec ID                                 : S_TEXT/UTF8
Codec ID/Info                            : UTF-8 Plain Text
Duration                                 : 1 h 40 min
Bit rate                                 : 33 b/s
Count of elements                        : 995
Stream size                              : 24.7 KiB (0%)
Title                                    : Full
Language                                 : English
Default                                  : No
Forced                                   : No

Menu
00:00:00.000                             : en:Emily's Mommy
00:04:05.411                             : en:Beyond Therapy
00:06:43.611                             : en:Starting Over
00:09:10.508                             : en:Main Titles
00:10:48.356                             : en:Welcome to Woodland
00:13:17.546                             : en:The First Night
00:16:22.856                             : en:Into the Woods
00:18:06.293                             : en:New Acquaintances
00:21:32.249                             : en:Charlie
00:25:31.029                             : en:Going Fishing
00:27:43.411                             : en:You Let Her Die
00:29:54.167                             : en:No More Friends
00:33:18.705                             : en:Don't Talk to Strangers
00:35:48.104                             : en:Where's Charlie?
00:38:06.784                             : en:The Hidden Room
00:43:05.124                             : en:Dressed for Dinner
00:46:25.199                             : en:Now Look What You've Done
00:50:27.482                             : en:What Charlie Says
00:53:24.492                             : en:Our Game
00:55:59.564                             : en:Flashes of Red
00:58:40.350                             : en:The Neighbor's Problem
01:02:26.826                             : en:Charlie's Hiding
01:06:00.665                             : en:Looking For Elizabeth
01:10:48.494                             : en:Can You See Now?
01:12:37.019                             : en:Daddy Can't Save Me
01:15:07.836                             : en:Daddy's Gone
01:19:52.579                             : en:The Sheriff's Surprise
01:22:58.264                             : en:Liar, Liar
01:25:06.101                             : en:One Last Game
01:31:07.003                             : en:Hide and Seek
01:35:44.947                             : en:Daddy's Little Girl
01:37:10.658                             : en:End Titles
Світлини





Джерело: &
Особиста оцінка: 0 - не дивився


 Трекер:    Зареєстрований   

Завантажити / скачати фільм українською



відео для новачків



 Зареєстрований:   2019-02-04 14:46
 Розмір:   6.18 GB 
 Оцінка фільму:   -/10 (Голосів: 0)
   
Інші релізи
Ваш часовий пояс: GMT + 2 Години

Нова тема   Відповісти