Хатіко: Найвірніший друг / Hachiko: A Dog's Story (2009) 1080p H.265 2xUkr/Eng | Sub Eng

Нові коментарі

Нова тема   Відповісти
Автор Повідомлення
-Star-Lord- 
VIP


З нами з: 09.08.18
Востаннє: 19.04.19
Повідомлень: 736

2019-02-04 14:42  
Хатіко: Найвірніший друг / Hachiko: A Dog's Story (2009) 1080p H.265 2xUkr/Eng | Sub Eng

Хатіко: Найвірніший друг / Hachiko: A Dog's Story (2009) 1080p H.265 2xUkr/Eng | Sub Eng


Жанр: Драма, Сімейний
Країна: США, Великобританія
Кінокомпанія: Inferno Distribution, Grand Army Entertainment, Opperman Viner Chrystyn Entertainment
Режисер: Ласс Халлстрем
Актори: Річард Гір, Джоан Аллен, Кері-Хіроюкі Тагава, Сара Ремер, Джейсон Олександр, Ерік Аварі, Давінія МакФедден, Роббі Саблетт, Кевін Декосте, Роб Денян

Сюжет:
Фільм поставлений по відомій правдивій історії, яка трапилася в Японії у 20-х роках. Пес щодня проводжав і зустрічав свого господаря на вокзалі. Потім господар несподівано помер, але пес протягом 9 років, щодня о 5 годині вечора приходив на вокзал зустрічати господаря і чекав його до останнього поїзда. Потім японці поставили йому пам'ятник на тому місці, де він постійно чекав господаря.

Тривалість: 01:33:14
Якість:
Відео:
кодек: H.265 (HEVC)
розмір кадру: 1920 x 1040
бітрейт: 6 793 кб/с
частота кадрів: 23.976 fps
біт піксель: 0.142 BPP
бітова глибина: 10 біт
Увага! Перед завантаженням переконайтесь, що ваш пристрій відтворення (та/або ПЗ) підтримує H.265 (HEVC)

Аудіо # 1:
мова: українська
переклад: багатоголосий закадровий
кодек: AC-3 2.0
бітрейт: 192 кб/с

Аудіо # 2:
мова: українська
переклад: багатоголосий закадровий
кодек: AC-3 5.1
бітрейт: 448 кб/с

Аудіо # 3:
мова: англійська
переклад: оригінал
кодек: AC-3 5.1
бітрейт: 448 кб/с

Субтитри # 1:
мова: англійська (Full),
тип: програмні (м'які)
формат: *.srt


Info
Код:
General
Unique ID                                : 194953842491504426244660158539280943495 (0x92AABE8AA0691B37ECAD08A80ED80987)
Complete name                            : F:\Video\Films\Hachiko. A Dog's Story (2009) 1080p H.265 [2xUKR_ENG].
Format                                   :
Format version                           : Version 4 / Version 2
File size                                : 5.13 GiB
Duration                                 : 1 h 33 min
Overall bit rate                         : 7 884 kb/s
Movie name                               : Hachiko. A Dog's Story (2009)
Encoded date                             : UTC 2019-02-03 18:39:52
Writing application                      : v20.0.0 ('I Am The Sun') 64-bit
Writing library                          : libebml v1.3.5 + v1.4.8
Cover                                    : Yes
Attachments                              : cover.jpg

Video
ID                                       : 1
Format                                   : HEVC
Format/Info                              : High Efficiency Video Coding
Format profile                           : Main [email protected]@High
Codec ID                                 : V_MPEGH/ISO/HEVC
Duration                                 : 1 h 33 min
Bit rate                                 : 6 793 kb/s
Width                                    : 1 920 pixels
Height                                   : 1 040 pixels
Display aspect ratio                     : 1.85:1
Frame rate mode                          : Constant
Frame rate                               : 23.976 (24000/1001) FPS
Color space                              : YUV
Chroma subsampling                       : 4:2:0
Bit depth                                : 10 bits
Bits/(Pixel*Frame)                       : 0.142
Stream size                              : 4.42 GiB (86%)
Title                                    : Hachiko. A Dog's Story (2009)
Writing library                          : x265 2.9+9-f74003e88622:[Windows][GCC 8.2.0][64 bit] 10bit
Encoding settings                        : cpuid=1049583 / frame-threads=5 / numa-pools=4 / wpp / no-pmode / no-pme / no-psnr / no-ssim / log-level=3 / input-csp=1 / input-res=1920x1040 / interlace=0 / total-frames=0 / level-idc=41 / high-tier=1 / uhd-bd=0 / ref=4 / allow-non-conformance / no-repeat-headers / annexb / no-aud / no-hrd / info / hash=0 / no-temporal-layers / open-gop / min-keyint=24 / keyint=240 / gop-lookahead=0 / bframes=8 / b-adapt=2 / b-pyramid / bframe-bias=0 / rc-lookahead=40 / lookahead-slices=6 / scenecut=40 / radl=0 / no-intra-refresh / ctu=64 / min-cu-size=8 / no-rect / no-amp / max-tu-size=32 / tu-inter-depth=1 / tu-intra-depth=1 / limit-tu=0 / rdoq-level=0 / dynamic-rd=0.00 / no-ssim-rd / signhide / no-tskip / nr-intra=0 / nr-inter=0 / no-constrained-intra / strong-intra-smoothing / max-merge=2 / limit-refs=3 / no-limit-modes / me=3 / subme=7 / merange=57 / temporal-mvp / weightp / no-weightb / no-analyze-src-pics / deblock=-3:-3 / no-sao / no-sao-non-deblock / rd=3 / no-early-skip / rskip / no-fast-intra / no-tskip-fast / no-cu-lossless / no-b-intra / no-splitrd-skip / rdpenalty=0 / psy-rd=2.00 / psy-rdoq=0.00 / no-rd-refine / no-lossless / cbqpoffs=0 / crqpoffs=0 / rc=crf / crf=18.0 / qcomp=0.60 / qpstep=4 / stats-write=0 / stats-read=0 / vbv-maxrate=50000 / vbv-bufsize=50000 / vbv-init=0.9 / crf-max=0.0 / crf-min=0.0 / ipratio=1.40 / pbratio=1.30 / aq-mode=1 / aq-strength=1.00 / cutree / zone-count=0 / no-strict-cbr / qg-size=32 / no-rc-grain / qpmax=69 / qpmin=0 / no-const-vbv / sar=1 / overscan=0 / videoformat=5 / range=0 / colorprim=1 / transfer=1 / colormatrix=1 / chromaloc=0 / display-window=0 / max-cll=0,0 / min-luma=0 / max-luma=1023 / log2-max-poc-lsb=8 / vui-timing-info / vui-hrd-info / slices=1 / no-opt-qp-pps / no-opt-ref-list-length-pps / no-multi-pass-opt-rps / scenecut-bias=0.05 / no-opt-cu-delta-qp / no-aq-motion / no-hdr / no-hdr-opt / no-dhdr10-opt / no-idr-recovery-sei / analysis-reuse-level=5 / scale-factor=0 / refine-intra=0 / refine-inter=0 / refine-mv=0 / no-limit-sao / ctu-info=0 / no-lowpass-dct / refine-mv-type=0 / copy-pic=1 / max-ausize-factor=1.0 / no-dynamic-refine / no-single-sei
Language                                 : English
Default                                  : Yes
Forced                                   : No
Color range                              : Limited
Color primaries                          : BT.709
Transfer characteristics                 : BT.709
Matrix coefficients                      : BT.709

Audio #1
ID                                       : 2
Format                                   : AC-3
Format/Info                              : Audio Coding 3
Codec ID                                 : A_AC3
Duration                                 : 1 h 33 min
Bit rate mode                            : Constant
Bit rate                                 : 192 kb/s
Channel(s)                               : 2 channels
Channel positions                        : Front: L R
Sampling rate                            : 48.0 kHz
Frame rate                               : 31.250 FPS (1536 SPF)
Bit depth                                : 16 bits
Compression mode                         : Lossy
Stream size                              : 128 MiB (2%)
Title                                    : БЗ - K1
Language                                 : Ukrainian
Service kind                             : Complete Main
Default                                  : Yes
Forced                                   : Yes

Audio #2
ID                                       : 3
Format                                   : AC-3
Format/Info                              : Audio Coding 3
Codec ID                                 : A_AC3
Duration                                 : 1 h 33 min
Bit rate mode                            : Constant
Bit rate                                 : 448 kb/s
Channel(s)                               : 6 channels
Channel positions                        : Front: L C R, Side: L R, LFE
Sampling rate                            : 48.0 kHz
Frame rate                               : 31.250 FPS (1536 SPF)
Bit depth                                : 16 bits
Compression mode                         : Lossy
Stream size                              : 299 MiB (6%)
Title                                    : БЗ - Kanal Ukraina
Language                                 : Ukrainian
Service kind                             : Complete Main
Default                                  : No
Forced                                   : No

Audio #3
ID                                       : 4
Format                                   : AC-3
Format/Info                              : Audio Coding 3
Codec ID                                 : A_AC3
Duration                                 : 1 h 33 min
Bit rate mode                            : Constant
Bit rate                                 : 448 kb/s
Channel(s)                               : 6 channels
Channel positions                        : Front: L C R, Side: L R, LFE
Sampling rate                            : 48.0 kHz
Frame rate                               : 31.250 FPS (1536 SPF)
Bit depth                                : 16 bits
Compression mode                         : Lossy
Stream size                              : 299 MiB (6%)
Title                                    : Orginal
Language                                 : English
Service kind                             : Complete Main
Default                                  : No
Forced                                   : No

Text
ID                                       : 5
Format                                   : UTF-8
Codec ID                                 : S_TEXT/UTF8
Codec ID/Info                            : UTF-8 Plain Text
Duration                                 : 1 h 27 min
Bit rate                                 : 45 b/s
Count of elements                        : 900
Stream size                              : 29.2 KiB (0%)
Title                                    : Full
Language                                 : English
Default                                  : No
Forced                                   : No

Menu
00:00:00.000                             : :Глава 1
00:06:15.208                             : :Глава 2
00:11:54.046                             : :Глава 3
00:18:37.407                             : :Глава 4
00:23:39.041                             : :Глава 5
00:28:31.292                             : :Глава 6
00:31:39.564                             : :Глава 7
00:35:33.089                             : :Глава 8
00:40:38.518                             : :Глава 9
00:47:16.708                             : :Глава 10
00:54:15.794                             : :Глава 11
00:58:41.518                             : :Глава 12
01:06:06.754                             : :Глава 13
01:12:45.778                             : :Глава 14
01:18:41.716                             : :Глава 15
01:23:22.706                             : :Глава 16
Світлини





Джерело: &
Особиста оцінка: 8 - мені сподобалося


 Трекер:    Зареєстрований   

Завантажити / скачати фільм українською



відео для новачків



 Зареєстрований:   2019-02-04 14:42
 Розмір:   5.13 GB 
 Оцінка фільму:   9.7/10 (Голосів: 3)
   
EvGaS 
Попереджень: 1
Попереджень: 1 


З нами з: 27.02.12
Востаннє: 20.04.19
Повідомлень: 5657

2019-02-05 08:18  
Історія гарна, і Гір добре зіграв, але те, що перенесли цю історію у сючасність — вважаю за помилку. Втратився антураж.
Зараз вокзал не є чимось центральним для життя й сполучення: у людей поз’являлися лаковані автівки, а в руках — пластикові стаканчики та електродроти з будівель, які сучасність зводить прагматичними коробками, навідміну від тодішніх пишних фасадів. Так, вокзал більш-менш старомодний, та все ж не здатен витравити вдосталь американ лайф з фільму й показати значення того, як у великому місті на жвавому транспортному вузлі сидів пес, якого всі бачили і ніхто не чіпав. Значення історії просто змінилося через призму поглядів часу. Бо це історія не просто про вірного собаку, а й про людську культуру й вихованість. Спробуйте уявити щоб у нас сидів малий собака на якомусь людному вокзалі — його або час від часу битимуть ногами якісь дурні-алкоголіки чи підлітки, або ж хтось натравить вет. службу. Тому й вважаю що від нових часових рамок кіно втратило і не змогло показати у повнім масштабі культурне ставлення до тварин. Може тому, що нині містяни урбанізувалися, коли оригінальні події відбувалися тоді, коли люди чи не заледь з конів злізли.

Ваш часовий пояс: GMT + 2 Години

Нова тема   Відповісти